<?xml version="1.0" standalone="no"?>
<!DOCTYPE svg PUBLIC "-//W3C//DTD SVG 1.1//EN" "http://www.w3.org/Graphics/SVG/1.1/DTD/svg11.dtd" >
<svg xmlns="http://www.w3.org/2000/svg" xmlns:xlink="http://www.w3.org/1999/xlink" version="1.1">
<metadata>
Created by FontForge 20230101 at Mon Jan  1 11:32:21 2024
 By andreas
Original: Copyright 2022 The Noto Project Authors (https://github.com/notofonts/latin-greek-cyrillic)
Modifications: Copyright 2024 Schweizerisches Idiotikon.
</metadata>
<defs>
<font id="NossikonSansSemiCondensed-Regular" horiz-adv-x="0" >
  <font-face 
    font-family="Nossikon Sans SemiCondensed"
    font-weight="400"
    font-stretch="semi-condensed"
    units-per-em="1000"
    panose-1="2 11 5 2 4 5 4 2 2 4"
    ascent="800"
    descent="-200"
    x-height="536"
    cap-height="714"
    bbox="-591 -389 2801 1063"
    underline-thickness="50"
    underline-position="-125"
    unicode-range="U+000D-1DF1E"
  />
<missing-glyph horiz-adv-x="598" 
d="M91 0v714h411v-714h-411zM142 51h309v612h-309v-612z" />
    <glyph glyph-name="f_f" unicode="ff" horiz-adv-x="621" 
d="M298 468h-116v-468h-86v468h-83v42l83 29v31q0 100 38.5 147.5t116.5 47.5q28 0 51.5 -5t43.5 -12l-22 -68q-15 5 -33 9t-36 4q-38 0 -55.5 -28t-17.5 -93v-36h116v-68zM609 468h-116v-468h-86v468h-83v42l83 29v31q0 100 38.5 147.5t116.5 47.5q28 0 51.5 -5t43.5 -12
l-22 -68q-15 5 -33 9t-36 4q-38 0 -55.5 -28t-17.5 -93v-36h116v-68z" />
    <glyph glyph-name="fi" unicode="fi" horiz-adv-x="551" 
d="M298 468h-116v-468h-86v468h-83v42l83 29v31q0 100 38.5 147.5t116.5 47.5q28 0 51.5 -5t43.5 -12l-22 -68q-15 5 -33 9t-36 4q-38 0 -55.5 -28t-17.5 -93v-36h116v-68zM433 738q21 0 35 -14t14 -43q0 -28 -14 -42t-35 -14q-22 0 -36.5 14t-14.5 42q0 29 14 43t37 14z
M474 536v-536h-85v536h85z" />
    <glyph glyph-name="fl" unicode="fl" horiz-adv-x="551" 
d="M298 468h-116v-468h-86v468h-83v42l83 29v31q0 100 38.5 147.5t116.5 47.5q28 0 51.5 -5t43.5 -12l-22 -68q-15 5 -33 9t-36 4q-38 0 -55.5 -28t-17.5 -93v-36h116v-68zM474 0h-85v760h85v-760z" />
    <glyph glyph-name="f_f_i" unicode="ffi" horiz-adv-x="862" 
d="M298 468h-116v-468h-86v468h-83v42l83 29v31q0 100 38.5 147.5t116.5 47.5q28 0 51.5 -5t43.5 -12l-22 -68q-15 5 -33 9t-36 4q-38 0 -55.5 -28t-17.5 -93v-36h116v-68zM609 468h-116v-468h-86v468h-83v42l83 29v31q0 100 38.5 147.5t116.5 47.5q28 0 51.5 -5t43.5 -12
l-22 -68q-15 5 -33 9t-36 4q-38 0 -55.5 -28t-17.5 -93v-36h116v-68zM743 738q21 0 35 -14t14 -43q0 -28 -14 -42t-35 -14q-22 0 -36.5 14t-14.5 42q0 29 14 43t37 14zM784 536v-536h-85v536h85z" />
    <glyph glyph-name="f_f_l" unicode="ffl" horiz-adv-x="862" 
d="M298 468h-116v-468h-86v468h-83v42l83 29v31q0 100 38.5 147.5t116.5 47.5q28 0 51.5 -5t43.5 -12l-22 -68q-15 5 -33 9t-36 4q-38 0 -55.5 -28t-17.5 -93v-36h116v-68zM609 468h-116v-468h-86v468h-83v42l83 29v31q0 100 38.5 147.5t116.5 47.5q28 0 51.5 -5t43.5 -12
l-22 -68q-15 5 -33 9t-36 4q-38 0 -55.5 -28t-17.5 -93v-36h116v-68zM784 0h-85v760h85v-760z" />
    <glyph glyph-name="j_uni0334" unicode="j&#x334;" horiz-adv-x="241" 
d="M-51 210q5 54 30 89.5t70 35.5q15 0 29 -4v205h85v-251q15 -7 29 -7q20 0 30.5 15t17.5 43h50q-5 -58 -31 -91.5t-68 -33.5q-14 0 -28 4v-296q0 -77 -33 -118t-103 -41q-21 0 -37.5 3t-29.5 8v71q13 -4 26.5 -6.5t28.5 -2.5q29 0 46 18.5t17 65.5v344q-16 7 -30 7
q-20 0 -31 -15t-17 -43h-51zM71 681q0 29 14 43t37 14q21 0 35 -14t14 -43q0 -28 -14 -42t-35 -14q-22 0 -36.5 14t-14.5 42z" />
    <glyph glyph-name="uni0307_uni0307" unicode="&#x307;&#x307;" 
d="M-124 676q0 26 13 38t32 12t32 -12t13 -38t-13 -38t-32 -12t-32 12t-13 38zM34 796q0 26 13.5 38t31.5 12q19 0 32.5 -12t13.5 -38t-13.5 -38t-32.5 -12q-18 0 -31.5 12t-13.5 38z" />
    <glyph glyph-name="uni1D43_uni1D49" unicode="&#x1d43;&#x1d49;" horiz-adv-x="506" 
d="M354 615q40 0 68 -18.5t42.5 -51t14.5 -74.5v-33h-202q2 -58 25 -86t67 -28q27 0 50 6t45 16v-44q-23 -11 -46 -16t-52 -5q-41 0 -72 17t-49 50q-20 -32 -47.5 -49.5t-70.5 -17.5q-46 0 -73 25.5t-27 70.5q0 48 36 74t107 28l51 2v21q0 38 -16.5 54.5t-46.5 16.5
q-22 0 -43.5 -6.5t-42.5 -16.5l-17 38q21 12 49 19t58 7q72 0 95 -48q33 49 97 49zM354 573q-34 0 -53.5 -24t-22.5 -70h145q0 41 -17 67.5t-52 26.5zM178 443q-51 -2 -72.5 -18.5t-21.5 -47.5q0 -28 14.5 -41t39.5 -13q36 0 59.5 23t23.5 69v30z" />
    <glyph glyph-name="uni1D43_uni0308" unicode="&#x1d43;&#x308;" horiz-adv-x="330" 
d="M79.8965 692.584q0 15.5986 8.4502 22.7988q8.4502 7.19922 20.8008 7.19922t20.8008 -7.19922q8.4502 -7.2002 8.4502 -22.7988q0 -15.5996 -8.4502 -22.7998q-8.4502 -7.19922 -20.8008 -7.19922t-20.8008 7.19922q-8.4502 7.2002 -8.4502 22.7998zM195.602 692.584
q0 15.5986 8.77441 22.7988q8.77539 7.19922 20.4766 7.19922q12.3506 0 21.125 -7.19922q8.77539 -7.2002 8.77539 -22.7988q0 -15.5996 -8.77539 -22.7998q-8.77441 -7.19922 -21.125 -7.19922q-11.7012 0 -20.4766 7.19922q-8.77441 7.2002 -8.77441 22.7998zM169 614
q59 0 86 -27t27 -82v-218h-41l-10 45h-2q-20 -26 -43 -38.5t-61 -12.5q-45 0 -71.5 25.5t-26.5 70.5q0 48 37 74t111 28l52 2v20q0 39 -16 55.5t-47 16.5q-22 0 -44 -7t-42 -16l-17 38q22 12 50 19t58 7zM183 443q-55 -2 -77 -18.5t-22 -47.5q0 -28 15.5 -41t40.5 -13
q38 0 62.5 23t24.5 69v30z" />
    <glyph glyph-name="uni1D52_uni0308" unicode="&#x1d52;&#x308;" horiz-adv-x="355" 
d="M90.8965 692.584q0 15.5986 8.4502 22.7988q8.4502 7.19922 20.8008 7.19922t20.8008 -7.19922q8.4502 -7.2002 8.4502 -22.7988q0 -15.5996 -8.4502 -22.7998q-8.4502 -7.19922 -20.8008 -7.19922t-20.8008 7.19922q-8.4502 7.2002 -8.4502 22.7998zM206.602 692.584
q0 15.5986 8.77441 22.7988q8.77539 7.19922 20.4766 7.19922q12.3506 0 21.125 -7.19922q8.77539 -7.2002 8.77539 -22.7988q0 -15.5996 -8.77539 -22.7998q-8.77441 -7.19922 -21.125 -7.19922q-11.7012 0 -20.4766 7.19922q-8.77441 7.2002 -8.77441 22.7998zM323 448
q0 -78 -38.5 -122.5t-107.5 -44.5q-44 0 -76.5 20t-50 57.5t-17.5 89.5q0 80 38 123.5t107 43.5q65 0 105 -43t40 -124zM90 448q0 -58 21 -91t67 -33q45 0 66.5 32.5t21.5 91.5t-21.5 91t-67.5 32t-66.5 -32t-20.5 -91z" />
    <glyph glyph-name="uni1D58_uni0308" unicode="&#x1d58;&#x308;" horiz-adv-x="363" 
d="M94.8965 692.584q0 15.5986 8.4502 22.7988q8.4502 7.19922 20.8008 7.19922t20.8008 -7.19922q8.4502 -7.2002 8.4502 -22.7988q0 -15.5996 -8.4502 -22.7998q-8.4502 -7.19922 -20.8008 -7.19922t-20.8008 7.19922q-8.4502 7.2002 -8.4502 22.7998zM210.602 692.584
q0 15.5986 8.77441 22.7988q8.77539 7.19922 20.4766 7.19922q12.3506 0 21.125 -7.19922q8.77539 -7.2002 8.77539 -22.7988q0 -15.5996 -8.77539 -22.7998q-8.77441 -7.19922 -21.125 -7.19922q-11.7012 0 -20.4766 7.19922q-8.77441 7.2002 -8.77441 22.7998zM313 609
v-322h-46l-7 43h-3q-15 -25 -41 -37t-57 -12q-57 0 -84 29.5t-27 87.5v211h55v-205q0 -79 65 -79q50 0 69.5 29t19.5 86v169h56z" />
    <glyph glyph-name="uni1D58_uni032F" unicode="&#x1d58;&#x32f;" horiz-adv-x="363" 
d="M174.3 252.802q43.5518 0 66.6279 -20.999q23.0762 -21 25.0254 -59.3984h-35.1006q-2.60059 23.999 -16.9014 32.0986q-14.2998 8.10059 -40.9512 8.10059q-23.4004 0 -39.3262 -8.40039q-15.9258 -8.39941 -18.5264 -31.7988h-35.751q2.59961 36.5986 27.3008 58.498
t67.6025 21.8994zM313 609v-322h-46l-7 43h-3q-15 -25 -41 -37t-57 -12q-57 0 -84 29.5t-27 87.5v211h55v-205q0 -79 65 -79q50 0 69.5 29t19.5 86v169h56z" />
    <glyph glyph-name="uni2071_uni032F" unicode="&#x2071;&#x32f;" horiz-adv-x="157" 
d="M80.2998 252.802q43.5518 0 66.6279 -20.999q23.0762 -21 25.0254 -59.3984h-35.1006q-2.60059 23.999 -16.9014 32.0986q-14.2998 8.10059 -40.9512 8.10059q-23.4004 0 -39.3262 -8.40039q-15.9258 -8.39941 -18.5264 -31.7988h-35.751q2.59961 36.5986 27.3008 58.498
t67.6025 21.8994zM79 730q14 0 23 -8.5t9 -25.5t-9 -25.5t-23 -8.5t-23.5 8.5t-9.5 25.5t9.5 25.5t23.5 8.5zM106 609v-322h-56v322h56z" />
    <glyph glyph-name="uni0313_acutecomb" unicode="&#x313;&#x301;" 
d="M-245 606l-40 22q17 11 28.5 26.5t11.5 32.5q0 22 -13 29t-27 7q-10 0 -17 -2t-11 -4v56q5 2 16.5 5.5t28.5 3.5q44 0 69.5 -17.5t25.5 -58.5q0 -35 -21.5 -59t-50.5 -41zM-152 609v12l48 158h103v-10l-95 -160h-56z" />
    <glyph glyph-name=".notdef" horiz-adv-x="598" 
d="M91 0v714h411v-714h-411zM142 51h309v612h-309v-612z" />
    <glyph glyph-name=".null" 
 />
    <glyph glyph-name="nonmarkingreturn" horiz-adv-x="333" 
 />
    <glyph glyph-name="NULL" 
 />
    <glyph glyph-name="CR" unicode="&#xd;" horiz-adv-x="233" 
 />
    <glyph glyph-name="space" unicode=" " horiz-adv-x="233" 
 />
    <glyph glyph-name="exclam" unicode="!" horiz-adv-x="257" 
d="M158 201h-59l-23 513h104zM69 54q0 35 16.5 50.5t42.5 15.5q25 0 42 -15t17 -51q0 -35 -17.5 -50.5t-41.5 -15.5q-26 0 -42.5 16t-16.5 50z" />
    <glyph glyph-name="quotedbl" unicode="&#x22;" horiz-adv-x="397" 
d="M157 714l-18 -258h-58l-19 258h95zM335 714l-18 -258h-57l-19 258h94z" />
    <glyph glyph-name="numbersign" unicode="#" horiz-adv-x="578" 
d="M433 441l-27 -163h119v-66h-130l-36 -212h-68l36 212h-127l-34 -212h-67l34 212h-110v66h121l28 163h-117v65h127l34 208h69l-34 -208h127l35 208h66l-35 -208h111v-65h-122zM212 278h126l28 163h-127z" />
    <glyph glyph-name="dollar" unicode="$" horiz-adv-x="520" 
d="M230 50q-52 1 -98.5 9.5t-77.5 23.5v83q32 -17 80 -29t96 -13v207q-92 28 -134 68.5t-42 109.5q0 72 48 115t128 48v87h58v-85q48 -2 88 -11.5t74 -24.5l-25 -71q-30 13 -64.5 21.5t-72.5 11.5v-206q61 -20 101 -42t60.5 -53t20.5 -78q0 -68 -47.5 -112t-134.5 -55v-112
h-58v108zM230 598q-48 -4 -71.5 -26.5t-23.5 -57.5q0 -39 20.5 -60.5t74.5 -37.5v182zM288 128q52 7 76.5 30t24.5 57q0 37 -22 57.5t-79 37.5v-182z" />
    <glyph glyph-name="percent" unicode="%" horiz-adv-x="770" 
d="M181 724q67 0 102.5 -58.5t35.5 -164.5t-34.5 -165.5t-103.5 -59.5q-66 0 -100.5 59.5t-34.5 165.5q0 107 33 165t102 58zM592 714l-342 -714h-73l342 714h73zM180 663q-34 0 -48.5 -40.5t-14.5 -121.5t15 -122t49 -41q66 0 66 163q0 162 -67 162zM587 438
q66 0 101.5 -58t35.5 -165q0 -106 -34 -165.5t-103 -59.5q-66 0 -100.5 60t-34.5 165q0 108 33 165.5t102 57.5zM586 376q-34 0 -49 -40t-15 -121t15 -121.5t50 -40.5q66 0 66 162q0 161 -67 161z" />
    <glyph glyph-name="ampersand" unicode="&#x26;" horiz-adv-x="639" 
d="M268 725q72 0 113 -40.5t41 -112.5q0 -62 -33.5 -107t-89.5 -84l159 -180q22 29 34.5 67t20.5 83h87q-11 -59 -32.5 -114.5t-54.5 -97.5l125 -139h-111l-71 80q-42 -41 -92.5 -65.5t-121.5 -24.5q-94 0 -146 52t-52 142q0 72 36 119.5t102 89.5q-31 42 -53.5 83t-22.5 96
q0 72 43.5 112.5t118.5 40.5zM265 655q-34 0 -55 -22t-21 -61q0 -35 16 -69t46 -68q48 31 68 63.5t20 74.5q0 38 -19.5 60t-54.5 22zM230 338q-47 -32 -72 -65.5t-25 -85.5q0 -55 31 -87.5t84 -32.5q52 0 90 19.5t67 52.5z" />
    <glyph glyph-name="quotesingle" unicode="'" horiz-adv-x="219" 
d="M157 714l-18 -258h-58l-19 258h95z" />
    <glyph glyph-name="parenleft" unicode="(" horiz-adv-x="297" 
d="M43 275q0 124 36 238t109 203h79q-68 -95 -102.5 -208t-34.5 -232q0 -116 34.5 -228.5t101.5 -205.5h-78q-73 87 -109 199t-36 234z" />
    <glyph glyph-name="parenright" unicode=")" horiz-adv-x="297" 
d="M253 275q0 -122 -35.5 -234t-109.5 -199h-77q66 94 101 206t35 228q0 119 -35 232t-102 208h78q74 -89 109.5 -203.5t35.5 -237.5z" />
    <glyph glyph-name="asterisk" unicode="*" horiz-adv-x="495" 
d="M292 760l-18 -169l166 48l14 -87l-160 -13l106 -141l-79 -45l-76 156l-71 -156l-81 45l104 141l-158 12l15 87l164 -47l-19 169h93z" />
    <glyph glyph-name="plus" unicode="+" horiz-adv-x="520" 
d="M295 388h180v-70h-180v-204h-71v204h-181v70h181v204h71v-204z" />
    <glyph glyph-name="comma" unicode="," horiz-adv-x="253" 
d="M185 104q-14 -57 -36 -118.5t-46 -115.5h-64q15 58 28.5 125t19.5 120h91z" />
    <glyph glyph-name="hyphen" unicode="-" horiz-adv-x="304" 
d="M35 229v79h234v-79h-234z" />
    <glyph glyph-name="period" unicode="." horiz-adv-x="253" 
d="M67 54q0 35 16.5 50.5t42.5 15.5q25 0 42 -15t17 -51q0 -35 -17 -50.5t-42 -15.5q-26 0 -42.5 16t-16.5 50z" />
    <glyph glyph-name="slash" unicode="/" horiz-adv-x="372" 
d="M361 715l-265 -716h-83l265 716h83z" />
    <glyph glyph-name="zero" unicode="0" horiz-adv-x="520" 
d="M473 358q0 -174 -49.5 -271t-164.5 -97q-106 0 -159.5 89.5t-53.5 278.5q0 177 50 272t163 95q108 0 161 -95t53 -272zM133 358q0 -147 28.5 -220t97.5 -73q68 0 97.5 72.5t29.5 220.5q0 146 -29.5 218.5t-97.5 72.5q-69 0 -97.5 -72.5t-28.5 -218.5z" />
    <glyph glyph-name="one" unicode="1" horiz-adv-x="520" 
d="M333 0h-85v492q0 39 1 68t3 59q-12 -13 -24.5 -24.5t-31.5 -27.5l-71 -62l-46 56l181 153h73v-714z" />
    <glyph glyph-name="two" unicode="2" horiz-adv-x="520" 
d="M469 0h-426v69l170 196q49 56 81.5 99t48 82.5t15.5 87.5q0 54 -31 84.5t-83 30.5q-45 0 -79 -15.5t-70 -45.5l-46 58q41 36 89 57t108 21q93 0 146.5 -50.5t53.5 -135.5q0 -56 -19 -104.5t-55 -96t-86 -101.5l-137 -154v-4h320v-78z" />
    <glyph glyph-name="three" unicode="3" horiz-adv-x="520" 
d="M448 548q0 -69 -36.5 -112.5t-100.5 -59.5v-4q77 -12 116 -56.5t39 -115.5q0 -93 -61 -151.5t-185 -58.5q-51 0 -94.5 8t-83.5 27v83q41 -22 87 -33t89 -11q83 0 120.5 37.5t37.5 101.5q0 66 -46.5 97t-133.5 31h-57v75h59q78 0 120 37t42 98q0 52 -31 80.5t-86 28.5
q-50 0 -85.5 -15t-71.5 -41l-42 59q38 32 88.5 51.5t113.5 19.5q100 0 151 -49t51 -127z" />
    <glyph glyph-name="four" unicode="4" horiz-adv-x="520" 
d="M502 159h-93v-159h-84v159h-305v73l299 487h90v-483h93v-77zM325 478q0 41 1.5 77t2.5 64h-3q-9 -20 -19.5 -42t-20.5 -39l-185 -302h224v242z" />
    <glyph glyph-name="five" unicode="5" horiz-adv-x="520" 
d="M252 438q99 0 157 -56t58 -153q0 -110 -64 -174.5t-180 -64.5q-50 0 -92.5 9t-72.5 27v83q33 -21 77.5 -33t86.5 -12q73 0 115 42t42 116q0 70 -38.5 106.5t-117.5 36.5q-27 0 -58.5 -4.5t-53.5 -10.5l-40 30l25 334h325v-79h-252l-16 -207q19 4 44.5 7t54.5 3z" />
    <glyph glyph-name="six" unicode="6" horiz-adv-x="520" 
d="M51 304q0 85 13.5 161t46 134.5t89.5 91.5t144 33q21 0 43.5 -2.5t38.5 -6.5v-75q-35 11 -80 11q-76 0 -121 -36.5t-65.5 -101t-23.5 -147.5h5q21 36 57.5 59.5t90.5 23.5q87 0 136.5 -60t49.5 -160q0 -108 -54 -173.5t-151 -65.5q-96 0 -157.5 78.5t-61.5 235.5zM269 64
q54 0 87 40.5t33 123.5q0 71 -29.5 110.5t-88.5 39.5q-41 0 -70.5 -19t-45.5 -48t-16 -61q0 -43 14 -85.5t43 -71.5t73 -29z" />
    <glyph glyph-name="seven" unicode="7" horiz-adv-x="520" 
d="M120 0l265 635h-346v79h436v-66l-261 -648h-94z" />
    <glyph glyph-name="eight" unicode="8" horiz-adv-x="520" 
d="M260 724q87 0 141 -44.5t54 -125.5q0 -62 -35.5 -104.5t-90.5 -73.5q41 -23 74.5 -49.5t53 -61.5t19.5 -81q0 -89 -58 -141.5t-155 -52.5q-106 0 -162.5 51t-56.5 139q0 69 38.5 115.5t97.5 77.5q-52 33 -84 76.5t-32 105.5q0 80 55 124.5t141 44.5zM258 653
q-49 0 -79.5 -27t-30.5 -76q0 -52 32 -82t82 -56q49 25 78.5 56.5t29.5 81.5q0 49 -30.5 76t-81.5 27zM128 179q0 -51 32.5 -85t99.5 -34q64 0 97.5 34.5t33.5 88.5q0 47 -33.5 81.5t-93.5 62.5l-17 9q-60 -30 -89.5 -66.5t-29.5 -90.5z" />
    <glyph glyph-name="nine" unicode="9" horiz-adv-x="520" 
d="M469 412q0 -85 -13.5 -161.5t-46.5 -135t-90 -92t-144 -33.5q-19 0 -44 2.5t-41 7.5v75q36 -12 83 -12q60 0 99.5 22.5t63 62.5t34.5 91t13 108h-5q-20 -36 -56.5 -59t-92.5 -23q-86 0 -135 60t-49 160q0 71 25 125t71.5 84t111.5 30q95 0 155.5 -78.5t60.5 -233.5z
M252 650q-55 0 -88 -40.5t-33 -123.5q0 -71 29 -110.5t89 -39.5q42 0 71.5 19.5t45.5 49.5t16 62q0 30 -7.5 61.5t-23 59t-40 45t-59.5 17.5z" />
    <glyph glyph-name="colon" unicode=":" horiz-adv-x="253" 
d="M68 480q0 35 16 50.5t42 15.5t43 -15.5t17 -50.5t-17.5 -51t-42.5 -16q-26 0 -42 16t-16 51zM68 54q0 35 16 50.5t42 15.5q25 0 42.5 -15t17.5 -51q0 -35 -17.5 -50.5t-42.5 -15.5q-26 0 -42 16t-16 50z" />
    <glyph glyph-name="semicolon" unicode=";" horiz-adv-x="253" 
d="M66 480q0 35 16.5 50.5t42.5 15.5t42.5 -15.5t16.5 -50.5t-17 -51t-42 -16q-26 0 -42.5 16t-16.5 51zM180 104q-14 -56 -36.5 -118.5t-46.5 -115.5h-64q15 58 28.5 125t20.5 120h91z" />
    <glyph glyph-name="less" unicode="&#x3c;" horiz-adv-x="520" 
d="M477 122l-435 204v50l435 221v-78l-341 -166l341 -153v-78z" />
    <glyph glyph-name="equal" unicode="=" horiz-adv-x="520" 
d="M46 419v70h425v-70h-425zM46 215v70h425v-70h-425z" />
    <glyph glyph-name="greater" unicode="&#x3e;" horiz-adv-x="520" 
d="M43 200l341 152l-341 167v78l434 -221v-50l-434 -204v78z" />
    <glyph glyph-name="question" unicode="?" horiz-adv-x="391" 
d="M125 229q0 54 15 90.5t57 77.5q33 31 52 54.5t27 46t8 51.5q0 48 -27 73.5t-77 25.5q-41 0 -73.5 -11.5t-63.5 -28.5l-31 68q37 22 80 35t94 13q87 0 134 -45.5t47 -125.5q0 -44 -12 -75.5t-35.5 -59t-56.5 -60.5q-29 -28 -44 -48.5t-20.5 -41.5t-5.5 -49v-18h-68v28z
M103 54q0 35 16 50.5t43 15.5q25 0 41.5 -15t16.5 -51q0 -35 -17 -50.5t-41 -15.5q-27 0 -43 16t-16 50z" />
    <glyph glyph-name="at" unicode="@" horiz-adv-x="808" 
d="M755 359q0 -68 -17.5 -124.5t-52 -90.5t-86.5 -34q-43 0 -67.5 25.5t-29.5 63.5h-5q-16 -40 -45.5 -64.5t-74.5 -24.5q-67 0 -103.5 50t-36.5 135q0 103 50 165t138 62q37 0 73 -6.5t60 -15.5l-9 -205q-1 -17 -1.5 -27.5t-0.5 -15.5q0 -47 16 -63.5t40 -16.5
q40 0 61.5 51.5t21.5 136.5q0 91 -33 157t-90.5 101t-131.5 35q-77 0 -134.5 -29t-96 -80t-57.5 -117t-19 -140q0 -95 30 -164.5t89.5 -108t148.5 -38.5q52 0 100.5 12.5t86.5 28.5v-66q-39 -18 -85.5 -28t-102.5 -10q-160 0 -248.5 97t-88.5 273q0 127 46 225t130.5 153.5
t200.5 54.5q96 0 169 -45t114 -125.5t41 -186.5zM311 293q0 -63 20.5 -92t57.5 -29q43 0 63 41t24 114l7 127q-11 3 -26.5 5.5t-32.5 2.5q-40 0 -65 -22.5t-36.5 -61t-11.5 -85.5z" />
    <glyph glyph-name="A" unicode="A" horiz-adv-x="570" 
d="M478 0l-74 222h-240l-73 -222h-91l240 716h88l241 -716h-91zM311 524q-3 11 -8.5 31t-11 40.5t-8.5 33.5q-5 -28 -12.5 -56t-13.5 -49l-70 -223h194z" />
    <glyph glyph-name="B" unicode="B" horiz-adv-x="587" 
d="M275 714q120 0 181.5 -41t61.5 -134q0 -65 -32 -107t-92 -53v-5q65 -12 104.5 -51.5t39.5 -118.5q0 -96 -59.5 -150t-164.5 -54h-226v714h187zM287 409q78 0 109 30.5t31 90.5q0 56 -36 82.5t-113 26.5h-102v-230h111zM176 336v-261h124q79 0 112 36t33 99q0 58 -35 92
t-118 34h-116z" />
    <glyph glyph-name="C" unicode="C" horiz-adv-x="564" 
d="M362 646q-68 0 -116 -36.5t-72.5 -102t-24.5 -150.5q0 -134 55 -211.5t160 -77.5q40 0 76.5 8t70.5 20v-78q-34 -14 -71.5 -21t-87.5 -7q-97 0 -162.5 44.5t-99 127t-33.5 196.5q0 106 34.5 188.5t102.5 130t168 47.5q98 0 173 -39l-33 -75q-30 15 -64.5 25.5t-75.5 10.5
z" />
    <glyph glyph-name="D" unicode="D" horiz-adv-x="652" 
d="M595 365q0 -181 -85.5 -273t-242.5 -92h-179v714h195q145 0 228.5 -89t83.5 -260zM503 361q0 141 -59.5 209t-170.5 68h-97v-562h82q245 0 245 285z" />
    <glyph glyph-name="E" unicode="E" horiz-adv-x="500" 
d="M445 0h-357v714h357v-78h-269v-225h253v-77h-253v-256h269v-78z" />
    <glyph glyph-name="F" unicode="F" horiz-adv-x="468" 
d="M176 0h-88v714h357v-78h-269v-254h253v-78h-253v-304z" />
    <glyph glyph-name="G" unicode="G" horiz-adv-x="661" 
d="M371 377h223v-351q-53 -18 -107.5 -27t-119.5 -9q-103 0 -171.5 46t-103.5 128.5t-35 193.5q0 109 38.5 191.5t113 128.5t181.5 46q55 0 104 -11.5t91 -31.5l-33 -76q-36 18 -78 29.5t-86 11.5q-114 0 -176.5 -76t-62.5 -213q0 -84 23.5 -149.5t75 -103t135.5 -37.5
q40 0 69.5 5t54.5 12v215h-136v78z" />
    <glyph glyph-name="H" unicode="H" horiz-adv-x="665" 
d="M576 0h-88v334h-312v-334h-88v714h88v-302h312v302h88v-714z" />
    <glyph glyph-name="I" unicode="I" horiz-adv-x="318" 
d="M280 0h-242v51l77 18v576l-77 18v51h242v-51l-77 -18v-576l77 -18v-51z" />
    <glyph glyph-name="J" unicode="J" horiz-adv-x="255" 
d="M3 -191q-42 0 -70 12v76q14 -5 30.5 -7.5t35.5 -2.5q36 0 60.5 25t24.5 93v709h88v-707q0 -104 -45.5 -151t-123.5 -47z" />
    <glyph glyph-name="K" unicode="K" horiz-adv-x="556" 
d="M557 0h-101l-215 337l-65 -63v-274h-88v714h88v-354q21 26 46 57t52 67l173 230h100l-244 -313z" />
    <glyph glyph-name="L" unicode="L" horiz-adv-x="468" 
d="M88 0v714h88v-635h270v-79h-358z" />
    <glyph glyph-name="M" unicode="M" horiz-adv-x="838" 
d="M379 0l-212 616h-4q3 -38 5 -84.5t2 -89.5v-442h-82v714h128l200 -584h4l203 584h127v-714h-86v445q0 41 2 86.5t4 83.5h-4l-213 -615h-74z" />
    <glyph glyph-name="N" unicode="N" horiz-adv-x="690" 
d="M602 0h-104l-331 589h-4q2 -37 4.5 -83.5t2.5 -92.5v-413h-82v714h103l331 -584h4q-2 31 -4 81t-2 91v412h82v-714z" />
    <glyph glyph-name="O" unicode="O" horiz-adv-x="696" 
d="M640 358q0 -108 -32 -191t-96.5 -130t-162.5 -47q-101 0 -165.5 47.5t-95.5 131t-31 190.5q0 171 72.5 268.5t219.5 97.5q98 0 162.5 -47t96.5 -129.5t32 -190.5zM149 358q0 -138 49 -214t150 -76q102 0 150.5 75.5t48.5 214.5t-48 214t-150 75t-151 -75.5t-49 -213.5z
" />
    <glyph glyph-name="P" unicode="P" horiz-adv-x="546" 
d="M256 714q128 0 187 -54t59 -156q0 -65 -25.5 -116t-82 -80.5t-149.5 -29.5h-69v-278h-88v714h168zM250 638h-74v-284h60q90 0 133 33.5t43 113.5q0 70 -39.5 103.5t-122.5 33.5z" />
    <glyph glyph-name="Q" unicode="Q" horiz-adv-x="696" 
d="M640 358q0 -133 -46 -223.5t-134 -125.5l148 -179h-118l-120 161q-5 0 -11.5 -0.5t-11.5 -0.5q-100 0 -164.5 48t-95 131.5t-30.5 189.5q0 171 72.5 268.5t219.5 97.5q142 0 216.5 -97.5t74.5 -269.5zM149 358q0 -138 49 -214t150 -76q102 0 150.5 75.5t48.5 214.5
t-48 214t-150 75t-151 -75.5t-49 -213.5z" />
    <glyph glyph-name="R" unicode="R" horiz-adv-x="563" 
d="M259 714q125 0 184 -50.5t59 -151.5q0 -80 -37.5 -125t-92.5 -67l177 -320h-101l-156 296h-116v-296h-88v714h171zM256 637h-80v-267h87q149 0 149 138q0 69 -38 99t-118 30z" />
    <glyph glyph-name="S" unicode="S" horiz-adv-x="499" 
d="M455 193q0 -94 -62.5 -148.5t-167.5 -54.5q-54 0 -100 8.5t-79 24.5v86q35 -17 83.5 -29t96.5 -12q69 0 105 32.5t36 84.5q0 35 -13.5 59t-45.5 44t-87 43q-82 33 -124.5 79t-42.5 130q-1 56 26 97.5t75 64t110 22.5q52 0 97 -11t80 -27l-27 -77q-35 16 -73 26t-78 10
q-59 0 -90 -29t-31 -75q0 -37 13 -60.5t43.5 -43t82.5 -40.5q85 -36 129 -81t44 -123z" />
    <glyph glyph-name="T" unicode="T" horiz-adv-x="492" 
d="M290 0h-88v636h-192v78h471v-78h-191v-636z" />
    <glyph glyph-name="U" unicode="U" horiz-adv-x="654" 
d="M572 242q0 -115 -61 -183.5t-186 -68.5q-119 0 -181 66.5t-62 186.5v471h87v-474q0 -172 160 -172q81 0 118.5 45.5t37.5 127.5v473h87v-472z" />
    <glyph glyph-name="V" unicode="V" horiz-adv-x="542" 
d="M542 714l-225 -714h-93l-224 714h92l141 -467q13 -40 22 -77.5t15 -71.5q12 67 38 151l141 465h93z" />
    <glyph glyph-name="W" unicode="W" horiz-adv-x="853" 
d="M843 714l-174 -714h-94l-121 463q-9 34 -17.5 74t-12.5 67q-3 -21 -10.5 -61t-18.5 -81l-118 -462h-94l-174 714h91l102 -437q22 -98 31 -173q6 41 15 87t20 89l113 434h87l115 -436q12 -44 21 -88.5t14 -85.5q5 41 13.5 85.5t19.5 88.5l102 436h90z" />
    <glyph glyph-name="X" unicode="X" horiz-adv-x="518" 
d="M513 0h-98l-156 303l-162 -303h-92l206 372l-190 342h95l145 -275l146 275h93l-189 -343z" />
    <glyph glyph-name="Y" unicode="Y" horiz-adv-x="502" 
d="M251 369l158 345h93l-207 -437v-277h-88v274l-207 440h94z" />
    <glyph glyph-name="Z" unicode="Z" horiz-adv-x="495" 
d="M463 0h-429v67l318 568h-309v79h411v-67l-319 -568h328v-79z" />
    <glyph glyph-name="bracketleft" unicode="[" horiz-adv-x="323" 
d="M296 -159h-219v875h219v-70h-136v-735h136v-70z" />
    <glyph glyph-name="backslash" unicode="\" horiz-adv-x="372" 
d="M95 715l266 -716h-84l-264 716h82z" />
    <glyph glyph-name="bracketright" unicode="]" horiz-adv-x="323" 
d="M27 -89h136v735h-136v70h219v-875h-219v70z" />
    <glyph glyph-name="asciicircum" unicode="^" horiz-adv-x="524" 
d="M30 291l201 426h49l215 -426h-78l-161 329l-148 -329h-78z" />
    <glyph glyph-name="underscore" unicode="_" horiz-adv-x="441" 
d="M443 -151h-445v64h445v-64z" />
    <glyph glyph-name="grave" unicode="`" horiz-adv-x="276" 
d="M142 766q11 -23 27 -50.5t34 -53.5t33 -44v-12h-57q-22 18 -50 46t-52.5 56.5t-36.5 47.5v10h102z" />
    <glyph glyph-name="a" unicode="a" horiz-adv-x="508" 
d="M261 546q89 0 130.5 -45t41.5 -137v-364h-63l-15 75h-3q-30 -43 -65.5 -64t-93.5 -21q-69 0 -110 42t-41 117q0 80 56.5 124t170.5 48l80 3v33q0 65 -24.5 92t-71.5 27q-35 0 -68.5 -11t-64.5 -27l-27 64q34 19 77 31.5t91 12.5zM281 260q-83 -3 -117 -31t-34 -80
q0 -46 23.5 -68t62.5 -22q58 0 95.5 39t37.5 115v50z" />
    <glyph glyph-name="b" unicode="b" horiz-adv-x="559" 
d="M163 563q0 -27 -1.5 -53t-2.5 -45h4q23 37 59 58.5t90 21.5q91 0 144 -69.5t53 -207.5q0 -136 -53 -207t-143 -71q-54 0 -90.5 21.5t-59.5 56.5h-6l-15 -68h-64v760h85v-197zM295 473q-76 0 -104 -52t-28 -148v-10q0 -99 29.5 -150t104.5 -51q124 0 124 207
q0 204 -126 204z" />
    <glyph glyph-name="c" unicode="c" horiz-adv-x="431" 
d="M271 -10q-101 0 -160.5 67t-59.5 208q0 142 61.5 211.5t163.5 69.5q37 0 70.5 -7.5t56.5 -19.5l-27 -71q-22 9 -49 16t-50 7q-138 0 -138 -205q0 -99 34 -150.5t101 -51.5q35 0 65 8t56 21v-74q-51 -29 -124 -29z" />
    <glyph glyph-name="d" unicode="d" horiz-adv-x="559" 
d="M247 -10q-91 0 -144 70t-53 207t53 208t144 71q53 0 89.5 -22t59.5 -57h5q-1 17 -3 39.5t-2 38.5v215h86v-760h-69l-12 71h-5q-23 -36 -59 -58.5t-90 -22.5zM263 62q72 0 103 46t31 140v21q0 101 -30 153t-105 52q-63 0 -93.5 -55.5t-30.5 -152.5q0 -99 31 -151.5
t94 -52.5z" />
    <glyph glyph-name="e" unicode="e" horiz-adv-x="510" 
d="M264 546q63 0 108 -30.5t68.5 -85t23.5 -124.5v-54h-326q4 -189 152 -189q43 0 78 9t73 28v-75q-37 -18 -73.5 -26.5t-83.5 -8.5q-111 0 -172 73t-61 201q0 134 57 208t156 74zM263 476q-55 0 -86.5 -40t-37.5 -116h238q0 67 -27.5 111.5t-86.5 44.5z" />
    <glyph glyph-name="f" unicode="f" horiz-adv-x="311" 
d="M298 468h-116v-468h-86v468h-83v42l83 29v31q0 100 38.5 147.5t116.5 47.5q28 0 51.5 -5t43.5 -12l-22 -68q-15 5 -33 9t-36 4q-38 0 -55.5 -28t-17.5 -93v-36h116v-68z" />
    <glyph glyph-name="g" unicode="g" horiz-adv-x="559" 
d="M247 546q47 0 84.5 -19.5t64.5 -61.5h5l11 71h70v-544q0 -114 -55 -173t-172 -59q-100 0 -169 33v79q75 -39 172 -39q66 0 102.5 37t36.5 111v19q0 14 1 36t2 36h-4q-50 -82 -149 -82q-93 0 -145 72t-52 205q0 132 52.5 205.5t144.5 73.5zM261 473q-60 0 -91.5 -53.5
t-31.5 -153.5q0 -204 125 -204q69 0 101.5 44.5t32.5 139.5v22q0 109 -32.5 157t-103.5 48z" />
    <glyph glyph-name="h" unicode="h" horiz-adv-x="559" 
d="M163 540q0 -42 -5 -77h6q21 41 61 62t87 21q87 0 129.5 -47t42.5 -144v-355h-85v345q0 65 -24 96.5t-77 31.5q-76 0 -105.5 -49.5t-29.5 -145.5v-278h-85v760h85v-220z" />
    <glyph glyph-name="i" unicode="i" horiz-adv-x="241" 
d="M122 738q21 0 35 -14t14 -43q0 -28 -14 -42t-35 -14q-22 0 -36.5 14t-14.5 42q0 29 14 43t37 14zM163 536v-536h-85v536h85z" />
    <glyph glyph-name="j" unicode="j" horiz-adv-x="241" 
d="M71 681q0 29 14 43t37 14q21 0 35 -14t14 -43q0 -28 -14 -42t-35 -14q-22 0 -36.5 14t-14.5 42zM27 -240q-21 0 -37.5 3t-29.5 8v71q13 -4 26.5 -6.5t28.5 -2.5q29 0 46 18.5t17 65.5v619h85v-617q0 -77 -33 -118t-103 -41z" />
    <glyph glyph-name="k" unicode="k" horiz-adv-x="485" 
d="M162 370q0 -20 -1.5 -46t-2.5 -48h4q9 14 25 36t28 37l152 187h98l-186 -221l198 -315h-99l-157 256l-59 -58v-198h-84v760h84v-390z" />
    <glyph glyph-name="l" unicode="l" horiz-adv-x="240" 
d="M163 0h-85v760h85v-760z" />
    <glyph glyph-name="m" unicode="m" horiz-adv-x="842" 
d="M607 546q81 0 121 -46.5t40 -146.5v-353h-85v345q0 128 -94 128q-67 0 -95.5 -45.5t-28.5 -131.5v-296h-84v346q0 65 -23.5 96t-71.5 31q-71 0 -97 -51.5t-26 -142.5v-279h-85v536h68l12 -73h5q21 42 59 62.5t83 20.5q112 0 144 -88h5q24 45 64 66.5t89 21.5z" />
    <glyph glyph-name="n" unicode="n" horiz-adv-x="559" 
d="M313 546q85 0 128 -46t43 -145v-355h-85v345q0 128 -101 128q-75 0 -105 -48.5t-30 -146.5v-278h-85v536h68l12 -73h5q23 42 63.5 62.5t86.5 20.5z" />
    <glyph glyph-name="o" unicode="o" horiz-adv-x="546" 
d="M497 269q0 -130 -59 -204.5t-166 -74.5q-67 0 -117 33.5t-77.5 96t-27.5 149.5q0 133 58.5 205t165.5 72q101 0 162 -71.5t61 -205.5zM138 269q0 -98 32.5 -152.5t103.5 -54.5q69 0 102 54t33 153q0 98 -33 151t-103 53q-71 0 -103 -53t-32 -151z" />
    <glyph glyph-name="p" unicode="p" horiz-adv-x="559" 
d="M312 546q91 0 144 -69t53 -208q0 -136 -53 -207.5t-143 -71.5q-54 0 -91 22.5t-59 56.5h-5q1 -18 3 -41t2 -41v-227h-85v776h69l12 -73h4q23 38 58.5 60.5t90.5 22.5zM295 474q-70 0 -100.5 -46.5t-31.5 -141.5v-18q0 -102 29.5 -154t104.5 -52q63 0 93.5 55.5
t30.5 151.5t-30.5 150.5t-95.5 54.5z" />
    <glyph glyph-name="q" unicode="q" horiz-adv-x="559" 
d="M396 -14q0 18 1 41.5t4 45.5h-5q-23 -37 -60 -60t-91 -23q-89 0 -142 69.5t-53 207.5t54.5 208.5t143.5 70.5q54 0 89.5 -22t58.5 -60h5l11 72h70v-776h-86v226zM264 62q70 0 101 46t32 139v20q0 104 -30.5 155.5t-104.5 51.5q-63 0 -93.5 -55.5t-30.5 -153.5
q0 -99 31 -151t95 -52z" />
    <glyph glyph-name="r" unicode="r" horiz-adv-x="373" 
d="M303 546q14 0 29 -1.5t28 -4.5l-11 -82q-24 7 -52 7q-36 0 -66.5 -23t-49 -64t-18.5 -94v-284h-85v536h68l11 -95h4q23 45 58.5 75t83.5 30z" />
    <glyph glyph-name="s" unicode="s" horiz-adv-x="428" 
d="M387 147q0 -77 -51 -117t-140 -40q-49 0 -86 8.5t-65 24.5v81q28 -17 68.5 -29.5t82.5 -12.5q56 0 82 21t26 57q0 31 -23.5 53t-89.5 50q-46 20 -78.5 41t-50.5 49.5t-18 71.5q0 66 50.5 103.5t132.5 37.5q43 0 81 -9t72 -26l-30 -68q-29 14 -61 23t-66 9
q-46 0 -71.5 -18t-25.5 -48q0 -34 26.5 -53.5t92.5 -48.5q44 -20 76 -40.5t49 -49t17 -70.5z" />
    <glyph glyph-name="t" unicode="t" horiz-adv-x="324" 
d="M239 62q17 0 35 3t31 8v-67q-34 -16 -85 -16q-59 0 -98 34.5t-39 123.5v320h-67v43l69 30l30 118h53v-123h131v-68h-131v-315q0 -91 71 -91z" />
    <glyph glyph-name="u" unicode="u" horiz-adv-x="559" 
d="M481 536v-536h-69l-12 71h-5q-23 -41 -63 -61t-87 -20q-88 0 -130 49t-42 147v350h86v-341q0 -132 100 -132q77 0 107 48.5t30 143.5v281h85z" />
    <glyph glyph-name="v" unicode="v" horiz-adv-x="457" 
d="M180 0l-179 536h90l99 -317q10 -32 20.5 -70t15.5 -65h4q4 21 14.5 58t20.5 70l101 324h90l-179 -536h-97z" />
    <glyph glyph-name="w" unicode="w" horiz-adv-x="720" 
d="M391 311q-10 37 -18 73t-12 60h-3q-4 -25 -12 -61t-18 -73l-85 -309h-97l-136 536h88l66 -279q10 -43 19 -87t14 -77h3q5 28 14 71t19 81l81 291h94l78 -291q9 -32 18.5 -73t14.5 -79h3q3 23 11 62t18 81l72 300h86l-137 -536h-100z" />
    <glyph glyph-name="x" unicode="x" horiz-adv-x="472" 
d="M186 275l-161 261h95l117 -199l116 199h94l-161 -262l170 -274h-95l-125 211l-126 -211h-93z" />
    <glyph glyph-name="y" unicode="y" horiz-adv-x="459" 
d="M2 536h90l101 -304q11 -36 21 -70.5t16 -66.5h4q5 25 15 62t23 75l95 304h90l-204 -613q-26 -78 -66.5 -120.5t-109.5 -42.5q-20 0 -36 2.5t-29 5.5v71q10 -3 24 -5t28 -2q39 0 63 24.5t40 73.5l24 70z" />
    <glyph glyph-name="z" unicode="z" horiz-adv-x="409" 
d="M376 0h-342v57l241 411h-227v68h321v-63l-238 -405h245v-68z" />
    <glyph glyph-name="braceleft" unicode="{" horiz-adv-x="373" 
d="M338 -159q-92 1 -141.5 40t-49.5 119v148q0 51 -28 73.5t-86 22.5v69q56 0 85 21t29 74v149q0 79 50.5 118.5t140.5 39.5v-70q-51 -1 -79 -23t-28 -71v-147q0 -52 -25 -82.5t-78 -40.5v-5q54 -10 78.5 -41t24.5 -82v-148q0 -49 27 -71.5t80 -22.5v-70z" />
    <glyph glyph-name="bar" unicode="|" horiz-adv-x="497" 
d="M212 761h74v-1001h-74v1001z" />
    <glyph glyph-name="braceright" unicode="}" horiz-adv-x="373" 
d="M35 -89q52 1 79.5 23t27.5 71v147q0 104 103 123v6q-54 9 -78.5 39.5t-24.5 83.5v147q0 50 -27.5 71.5t-79.5 22.5v70q92 -1 141.5 -40t49.5 -119v-148q0 -50 27.5 -72.5t86.5 -22.5v-69q-58 -1 -86 -22.5t-28 -72.5v-149q0 -80 -50 -119.5t-141 -39.5v70z" />
    <glyph glyph-name="asciitilde" unicode="~" horiz-adv-x="520" 
d="M246 319q-32 15 -54.5 21t-42.5 6q-26 0 -54.5 -16.5t-52.5 -42.5v78q46 52 112 52q28 0 54.5 -7t65.5 -24q32 -15 54 -21t42 -6q27 0 56 17t51 42v-77q-46 -53 -111 -53q-29 0 -55.5 7t-64.5 24z" />
    <glyph glyph-name="uni00A0" unicode="&#xa0;" horiz-adv-x="233" 
 />
    <glyph glyph-name="exclamdown" unicode="&#xa1;" horiz-adv-x="257" 
d="M188 477q0 -36 -17.5 -51t-41.5 -15q-27 0 -43.5 15.5t-16.5 50.5t16.5 51t43.5 16q24 0 41.5 -16t17.5 -51zM98 330h59l22 -514h-104z" />
    <glyph glyph-name="cent" unicode="&#xa2;" horiz-adv-x="520" 
d="M323 644q33 -2 63 -9.5t52 -18.5l-26 -71q-23 10 -50.5 17t-50.5 7q-72 0 -105.5 -51t-33.5 -155t34 -152.5t102 -48.5q35 0 64.5 8t57.5 21v-75q-23 -12 -48.5 -19t-59.5 -9v-98h-62v100q-83 12 -129 77.5t-46 194.5q0 131 46.5 198t128.5 80v84h63v-80z" />
    <glyph glyph-name="sterling" unicode="&#xa3;" horiz-adv-x="520" 
d="M307 723q48 0 87 -11t72 -30l-31 -69q-29 16 -60 26.5t-65 10.5q-50 0 -74.5 -28.5t-24.5 -92.5v-141h174v-66h-174v-107q0 -57 -19 -88t-47 -48h337v-79h-446v73q40 12 64 45t24 96v108h-87v66h87v147q0 91 49 139.5t134 48.5z" />
    <glyph glyph-name="currency" unicode="&#xa4;" horiz-adv-x="564" 
d="M87 353q0 30 9.5 58.5t26.5 52.5l-66 67l47 45l65 -65q50 37 113 37q61 0 111 -36l66 64l47 -44l-65 -67q16 -24 26 -52.5t10 -59.5q0 -63 -36 -113l64 -66l-45 -45l-67 65q-24 -17 -52 -26t-59 -9q-65 0 -113 36l-65 -65l-46 46l65 65q-17 24 -26.5 52.5t-9.5 59.5z
M150 353q0 -37 17.5 -66.5t47.5 -47.5t67 -18q38 0 68 18t47.5 48t17.5 66q0 37 -18 67t-48 48t-67 18q-36 0 -66 -18t-48 -48t-18 -67z" />
    <glyph glyph-name="yen" unicode="&#xa5;" horiz-adv-x="520" 
d="M259 370l146 344h90l-171 -377h114v-62h-137v-83h137v-63h-137v-129h-85v129h-136v63h136v83h-136v62h111l-169 377h90z" />
    <glyph glyph-name="brokenbar" unicode="&#xa6;" horiz-adv-x="497" 
d="M212 760h74v-385h-74v385zM212 146h74v-386h-74v386z" />
    <glyph glyph-name="section" unicode="&#xa7;" horiz-adv-x="461" 
d="M57 400q0 45 22 75t54 46q-34 21 -52.5 48.5t-18.5 64.5q0 61 48 95t131 34q48 0 82.5 -8.5t69.5 -24.5l-27 -63q-32 14 -61 22.5t-67 8.5q-51 0 -74 -16.5t-23 -44.5q0 -30 25.5 -49.5t88.5 -44.5q70 -29 108.5 -63.5t38.5 -92.5q0 -46 -20.5 -77.5t-49.5 -49.5
q34 -21 51 -47.5t17 -62.5q0 -67 -52.5 -105t-143.5 -38q-48 0 -85.5 8.5t-66.5 24.5v73q29 -16 71 -28.5t83 -12.5q62 0 88 21t26 51q0 21 -9.5 35.5t-35 29.5t-73.5 36q-72 31 -108.5 63.5t-36.5 91.5zM130 410q0 -35 27 -58.5t90 -49.5l27 -12q22 13 38 34t16 51
q0 24 -11 42.5t-40.5 35.5t-82.5 38q-27 -8 -45.5 -29.5t-18.5 -51.5z" />
    <glyph glyph-name="dieresis" unicode="&#xa8;" horiz-adv-x="559" 
d="M145 676q0 26 13 38t32 12t32 -12t13 -38t-13 -38t-32 -12t-32 12t-13 38zM323 676q0 26 13.5 38t31.5 12q19 0 32.5 -12t13.5 -38t-13.5 -38t-32.5 -12q-18 0 -31.5 12t-13.5 38z" />
    <glyph glyph-name="copyright" unicode="&#xa9;" horiz-adv-x="831" 
d="M416 -10q-82 0 -149.5 28t-116 77.5t-75 116.5t-26.5 145q0 81 27.5 148t77 116t116.5 76t146 27q78 0 144.5 -27.5t116.5 -77t78 -116.5t28 -146q0 -80 -27.5 -147t-77 -116.5t-116.5 -76.5t-146 -27zM416 43q88 0 158 41t111 112t41 161q0 88 -40 159t-110 113t-160 42
q-92 0 -162 -41t-109.5 -112t-39.5 -161q0 -89 40.5 -160t110.5 -112.5t160 -41.5zM430 133q-97 0 -147 60t-50 163q0 100 52.5 162t149.5 62q65 0 123 -30l-28 -59q-49 25 -94 25q-60 0 -93.5 -42t-33.5 -117q0 -79 30 -119.5t96 -40.5q23 0 51 6.5t54 16.5v-63
q-25 -11 -51 -17.5t-59 -6.5z" />
    <glyph glyph-name="ordfeminine" unicode="&#xaa;" horiz-adv-x="337" 
d="M168 722q60 0 89.5 -27.5t29.5 -85.5v-220h-45l-12 44q-19 -23 -45 -36.5t-60 -13.5q-44 0 -69.5 25.5t-25.5 72.5q0 97 145 105l50 2v23q0 33 -17 46t-45 13q-24 0 -46.5 -6.5t-43.5 -17.5l-21 48q25 13 54.5 20.5t61.5 7.5zM184 542q-52 -3 -71.5 -18t-19.5 -42
q0 -49 49 -49q43 0 63 23.5t20 63.5v24z" />
    <glyph glyph-name="guillemotleft" unicode="&#xab;" horiz-adv-x="491" 
d="M38 270l159 199l61 -34l-127 -171l127 -171l-61 -34l-159 198v13zM233 270l161 199l60 -34l-128 -171l128 -171l-60 -34l-161 198v13z" />
    <glyph glyph-name="logicalnot" unicode="&#xac;" horiz-adv-x="520" 
d="M473 388v-263h-71v193h-359v70h430z" />
    <glyph glyph-name="uni00AD" unicode="&#xad;" horiz-adv-x="304" 
d="M35 229v79h234v-79h-234z" />
    <glyph glyph-name="registered" unicode="&#xae;" horiz-adv-x="831" 
d="M416 -10q-82 0 -149.5 28t-116 77.5t-75 116.5t-26.5 145q0 81 27.5 148t77 116t116.5 76t146 27q78 0 144.5 -27.5t116.5 -77t78 -116.5t28 -146q0 -80 -27.5 -147t-77 -116.5t-116.5 -76.5t-146 -27zM416 43q88 0 158 41t111 112t41 161q0 88 -40 159t-110 113t-160 42
q-92 0 -162 -41t-109.5 -112t-39.5 -161q0 -89 40.5 -160t110.5 -112.5t160 -41.5zM280 141v434h124q158 0 158 -128q0 -46 -22 -74t-54 -41l109 -191h-83l-94 171h-63v-171h-75zM402 372q39 0 61.5 19t22.5 53q0 36 -20.5 52.5t-64.5 16.5h-47v-141h48z" />
    <glyph glyph-name="overscore" unicode="&#xaf;" horiz-adv-x="477" 
d="M480 760h-483v65h483v-65z" />
    <glyph glyph-name="degree" unicode="&#xb0;" horiz-adv-x="405" 
d="M202 431q-67 0 -109 40t-42 106t41.5 106.5t109.5 40.5q67 0 109.5 -40.5t42.5 -106.5t-43 -106t-109 -40zM203 487q44 0 66 25t22 65q0 41 -22.5 66t-65.5 25q-45 0 -67 -25.5t-22 -65.5q0 -41 22.5 -65.5t66.5 -24.5z" />
    <glyph glyph-name="plusminus" unicode="&#xb1;" horiz-adv-x="520" 
d="M295 396h180v-70h-180v-204h-71v204h-181v70h181v205h71v-205zM43 0v70h433v-70h-433z" />
    <glyph glyph-name="uni00B2" unicode="&#xb2;" horiz-adv-x="337" 
d="M293 416h-268v54l105 111q36 37 55.5 62t27.5 45.5t8 43.5q0 30 -17.5 46.5t-46.5 16.5q-27 0 -49.5 -11.5t-45.5 -31.5l-34 46q26 25 58.5 40t73.5 15q61 0 96 -31.5t35 -85.5q0 -34 -13 -62t-38.5 -58t-63.5 -69l-69 -71h186v-60z" />
    <glyph glyph-name="uni00B3" unicode="&#xb3;" horiz-adv-x="337" 
d="M156 853q65 0 99.5 -30.5t34.5 -79.5q0 -39 -20 -65t-50 -37v-3q39 -9 61 -35t22 -68q0 -57 -41 -92t-120 -35q-68 0 -121 26v64q60 -32 121 -32q48 0 70 19.5t22 52.5q0 37 -26.5 54t-75.5 17h-49v55h48q46 0 68.5 19.5t22.5 51.5q0 30 -19 45t-49 15q-27 0 -50.5 -9.5
t-48.5 -27.5l-34 46q29 23 61.5 36t73.5 13z" />
    <glyph glyph-name="acute" unicode="&#xb4;" horiz-adv-x="276" 
d="M236 756q-13 -19 -37.5 -47.5t-52.5 -56.5t-50 -46h-56v12q24 32 50 73t43 75h103v-10z" />
    <glyph glyph-name="uni00B5" unicode="&#xb5;" horiz-adv-x="563" 
d="M485 536v-536h-69l-12 72h-5q-45 -82 -138 -82q-34 0 -58 12.5t-41 33.5h-4q2 -21 3.5 -49t1.5 -61v-166h-85v776h85v-345q0 -128 100 -128q77 0 106.5 49.5t29.5 144.5v279h86z" />
    <glyph glyph-name="paragraph" unicode="&#xb6;" horiz-adv-x="592" 
d="M495 -127h-58v831h-89v-831h-58v400q-13 -4 -28.5 -6.5t-30.5 -2.5q-81 0 -127.5 56.5t-46.5 188.5q0 136 51 193.5t140 57.5h247v-887z" />
    <glyph glyph-name="periodcentered" unicode="&#xb7;" horiz-adv-x="253" 
d="M67 352q0 35 16.5 50.5t42.5 15.5q25 0 42 -15t17 -51q0 -35 -17 -50.5t-42 -15.5q-26 0 -42.5 16t-16.5 50z" />
    <glyph glyph-name="cedilla" unicode="&#xb8;" horiz-adv-x="217" 
d="M202 -138q0 -49 -35 -75.5t-102 -26.5q-34 0 -52 5v55q19 -5 49 -5q70 0 70 45q0 27 -24 39t-62 18l40 83h55l-25 -52q38 -8 62 -29t24 -57z" />
    <glyph glyph-name="uni00B9" unicode="&#xb9;" horiz-adv-x="337" 
d="M232 844v-428h-69v271q0 24 1 45.5t3 43.5q-9 -8 -19.5 -17t-20.5 -16l-55 -41l-35 48l128 94h67z" />
    <glyph glyph-name="ordmasculine" unicode="&#xba;" horiz-adv-x="353" 
d="M322 553q0 -81 -39 -125.5t-107 -44.5q-65 0 -105 44t-40 126q0 81 39.5 125t107.5 44q66 0 105 -43t39 -126zM95 553q0 -60 19.5 -88.5t62.5 -28.5t62.5 28.5t19.5 88.5t-19.5 88t-62.5 28q-82 0 -82 -116z" />
    <glyph glyph-name="guillemotright" unicode="&#xbb;" horiz-adv-x="491" 
d="M453 257l-161 -198l-59 34l127 171l-127 171l59 34l161 -199v-13zM258 257l-161 -198l-59 34l127 171l-127 171l59 34l161 -199v-13z" />
    <glyph glyph-name="onequarter" unicode="&#xbc;" horiz-adv-x="734" 
d="M136 0l411 714h73l-411 -714h-73zM157 557q0 25 1 46.5t3 43.5q-9 -8 -19.5 -17t-19.5 -17l-56 -40l-35 47l128 94h67v-428h-69v271zM594 0v95h-183v50l183 286h70v-278h58v-58h-58v-95h-70zM478 153h116v103q0 23 0.5 48t1.5 45q-4 -11 -16 -31t-22 -36z" />
    <glyph glyph-name="onehalf" unicode="&#xbd;" horiz-adv-x="761" 
d="M113 0l410 714h73l-411 -714h-72zM149 557q0 25 1 46.5t3 43.5q-9 -8 -19 -17t-20 -17l-56 -40l-34 47l128 94h66v-428h-69v271zM449 0v55l105 110q36 37 55.5 62t27.5 45.5t8 43.5q0 30 -17.5 46.5t-46.5 16.5q-27 0 -49.5 -11t-45.5 -31l-35 45q27 25 59.5 40t73.5 15
q61 0 96 -31.5t35 -84.5q0 -51 -28.5 -90t-79.5 -92l-76 -78h186v-61h-268z" />
    <glyph glyph-name="threequarters" unicode="&#xbe;" horiz-adv-x="762" 
d="M141 278q-34 0 -63.5 6.5t-57.5 20.5v63q61 -32 121 -32q47 0 69 19.5t22 52.5q0 37 -26.5 54.5t-74.5 17.5h-49v55h48q46 0 68 19.5t22 51.5q0 30 -18.5 45t-48.5 15q-27 0 -51 -10t-48 -27l-34 46q29 23 61 35.5t74 12.5q65 0 99.5 -30t34.5 -80q0 -38 -20 -64t-51 -37
v-4q40 -9 62 -35t22 -67q0 -57 -41 -92.5t-120 -35.5zM169 0l410 714h73l-410 -714h-73zM622 0v95h-183v50l183 286h70v-278h58v-58h-58v-95h-70zM506 153h116v103q0 23 0.5 48t1.5 45q-4 -11 -16 -31t-22 -36z" />
    <glyph glyph-name="questiondown" unicode="&#xbf;" horiz-adv-x="391" 
d="M266 303q0 -54 -15.5 -90.5t-57.5 -77.5q-33 -32 -52 -55t-27 -45.5t-8 -52.5q0 -48 27 -73t77 -25q41 0 73.5 11.5t63.5 27.5l31 -67q-37 -22 -79.5 -35t-93.5 -13q-88 0 -135 45t-47 126q0 44 12.5 75.5t35.5 59t57 60.5q28 27 43 48t20.5 42t5.5 49v18h69v-28z
M288 477q0 -35 -16.5 -50.5t-43.5 -15.5q-24 0 -41 15.5t-17 50.5t17 51t41 16q27 0 43.5 -16t16.5 -51z" />
    <glyph glyph-name="Agrave" unicode="&#xc0;" horiz-adv-x="570" 
d="M478 0l-74 222h-240l-73 -222h-91l240 716h88l241 -716h-91zM311 524q-3 11 -8.5 31t-11 40.5t-8.5 33.5q-5 -28 -12.5 -56t-13.5 -49l-70 -223h194zM262 944q11 -23 27 -50.5t34 -53.5t33 -44v-12h-57q-22 18 -50 46t-52.5 56.5t-36.5 47.5v10h102z" />
    <glyph glyph-name="Aacute" unicode="&#xc1;" horiz-adv-x="570" 
d="M478 0l-74 222h-240l-73 -222h-91l240 716h88l241 -716h-91zM311 524q-3 11 -8.5 31t-11 40.5t-8.5 33.5q-5 -28 -12.5 -56t-13.5 -49l-70 -223h194zM425 934q-13 -19 -37.5 -47.5t-52.5 -56.5t-50 -46h-56v12q24 32 50 73t43 75h103v-10z" />
    <glyph glyph-name="Acircumflex" unicode="&#xc2;" horiz-adv-x="570" 
d="M478 0l-74 222h-240l-73 -222h-91l240 716h88l241 -716h-91zM311 524q-3 11 -8.5 31t-11 40.5t-8.5 33.5q-5 -28 -12.5 -56t-13.5 -49l-70 -223h194zM325 944q11 -22 31 -49.5t42 -53.5t40 -46v-11h-56q-24 17 -49.5 41t-50.5 50q-26 -26 -51 -50t-48 -41h-55v11
q18 21 39.5 47.5t41 53t31.5 48.5h85z" />
    <glyph glyph-name="Atilde" unicode="&#xc3;" horiz-adv-x="570" 
d="M478 0l-74 222h-240l-73 -222h-91l240 716h88l241 -716h-91zM311 524q-3 11 -8.5 31t-11 40.5t-8.5 33.5q-5 -28 -12.5 -56t-13.5 -49l-70 -223h194zM114 784q5 54 30 89.5t70 35.5q28 0 53 -14t47.5 -28.5t42.5 -14.5t30.5 15t17.5 43h50q-5 -58 -31 -91.5t-68 -33.5
q-27 0 -52 14t-48 28.5t-43 14.5t-31 -15t-17 -43h-51z" />
    <glyph glyph-name="Adieresis" unicode="&#xc4;" horiz-adv-x="570" 
d="M478 0l-74 222h-240l-73 -222h-91l240 716h88l241 -716h-91zM311 524q-3 11 -8.5 31t-11 40.5t-8.5 33.5q-5 -28 -12.5 -56t-13.5 -49l-70 -223h194zM149 854q0 26 13 38t32 12t32 -12t13 -38t-13 -38t-32 -12t-32 12t-13 38zM327 854q0 26 13.5 38t31.5 12
q19 0 32.5 -12t13.5 -38t-13.5 -38t-32.5 -12q-18 0 -31.5 12t-13.5 38z" />
    <glyph glyph-name="Aring" unicode="&#xc5;" horiz-adv-x="570" 
d="M478 0l-74 222h-240l-73 -222h-91l240 716h88l241 -716h-91zM311 524q-3 11 -8.5 31t-11 40.5t-8.5 33.5q-5 -28 -12.5 -56t-13.5 -49l-70 -223h194zM284 668q-49 0 -78.5 28t-29.5 76t29.5 75.5t78.5 27.5q46 0 77 -27t31 -75q0 -49 -30 -77t-78 -28zM284 718
q24 0 39.5 14.5t15.5 39.5t-15.5 40t-39.5 15t-39.5 -15t-15.5 -40t14 -39.5t41 -14.5z" />
    <glyph glyph-name="AE" unicode="&#xc6;" horiz-adv-x="784" 
d="M729 0h-340v222h-207l-91 -222h-92l293 714h437v-78h-252v-225h235v-77h-235v-256h252v-78zM212 301h178v334h-43z" />
    <glyph glyph-name="Ccedilla" unicode="&#xc7;" horiz-adv-x="564" 
d="M362 646q-68 0 -116 -36.5t-72.5 -102t-24.5 -150.5q0 -134 55 -211.5t160 -77.5q40 0 76.5 8t70.5 20v-78q-34 -14 -71.5 -21t-87.5 -7q-97 0 -162.5 44.5t-99 127t-33.5 196.5q0 106 34.5 188.5t102.5 130t168 47.5q98 0 173 -39l-33 -75q-30 15 -64.5 25.5t-75.5 10.5
zM430 -138q0 -49 -35 -75.5t-102 -26.5q-34 0 -52 5v55q19 -5 49 -5q70 0 70 45q0 27 -24 39t-62 18l40 83h55l-25 -52q38 -8 62 -29t24 -57z" />
    <glyph glyph-name="Egrave" unicode="&#xc8;" horiz-adv-x="500" 
d="M445 0h-357v714h357v-78h-269v-225h253v-77h-253v-256h269v-78zM251 944q11 -23 27 -50.5t34 -53.5t33 -44v-12h-57q-22 18 -50 46t-52.5 56.5t-36.5 47.5v10h102z" />
    <glyph glyph-name="Eacute" unicode="&#xc9;" horiz-adv-x="500" 
d="M445 0h-357v714h357v-78h-269v-225h253v-77h-253v-256h269v-78zM414 934q-13 -19 -37.5 -47.5t-52.5 -56.5t-50 -46h-56v12q24 32 50 73t43 75h103v-10z" />
    <glyph glyph-name="Ecircumflex" unicode="&#xca;" horiz-adv-x="500" 
d="M445 0h-357v714h357v-78h-269v-225h253v-77h-253v-256h269v-78zM314 944q11 -22 31 -49.5t42 -53.5t40 -46v-11h-56q-24 17 -49.5 41t-50.5 50q-26 -26 -51 -50t-48 -41h-55v11q18 21 39.5 47.5t41 53t31.5 48.5h85z" />
    <glyph glyph-name="Edieresis" unicode="&#xcb;" horiz-adv-x="500" 
d="M445 0h-357v714h357v-78h-269v-225h253v-77h-253v-256h269v-78zM138 854q0 26 13 38t32 12t32 -12t13 -38t-13 -38t-32 -12t-32 12t-13 38zM316 854q0 26 13.5 38t31.5 12q19 0 32.5 -12t13.5 -38t-13.5 -38t-32.5 -12q-18 0 -31.5 12t-13.5 38z" />
    <glyph glyph-name="Igrave" unicode="&#xcc;" horiz-adv-x="318" 
d="M280 0h-242v51l77 18v576l-77 18v51h242v-51l-77 -18v-576l77 -18v-51zM138 944q11 -23 27 -50.5t34 -53.5t33 -44v-12h-57q-22 18 -50 46t-52.5 56.5t-36.5 47.5v10h102z" />
    <glyph glyph-name="Iacute" unicode="&#xcd;" horiz-adv-x="318" 
d="M280 0h-242v51l77 18v576l-77 18v51h242v-51l-77 -18v-576l77 -18v-51zM301 934q-13 -19 -37.5 -47.5t-52.5 -56.5t-50 -46h-56v12q24 32 50 73t43 75h103v-10z" />
    <glyph glyph-name="Icircumflex" unicode="&#xce;" horiz-adv-x="318" 
d="M280 0h-242v51l77 18v576l-77 18v51h242v-51l-77 -18v-576l77 -18v-51zM201 944q11 -22 31 -49.5t42 -53.5t40 -46v-11h-56q-24 17 -49.5 41t-50.5 50q-26 -26 -51 -50t-48 -41h-55v11q18 21 39.5 47.5t41 53t31.5 48.5h85z" />
    <glyph glyph-name="Idieresis" unicode="&#xcf;" horiz-adv-x="318" 
d="M280 0h-242v51l77 18v576l-77 18v51h242v-51l-77 -18v-576l77 -18v-51zM25 854q0 26 13 38t32 12t32 -12t13 -38t-13 -38t-32 -12t-32 12t-13 38zM203 854q0 26 13.5 38t31.5 12q19 0 32.5 -12t13.5 -38t-13.5 -38t-32.5 -12q-18 0 -31.5 12t-13.5 38z" />
    <glyph glyph-name="Eth" unicode="&#xd0;" horiz-adv-x="652" 
d="M282 714q146 0 229.5 -89t83.5 -260q0 -181 -86 -273t-243 -92h-174v321h-65v74h65v319h190zM273 638h-93v-243h149v-74h-149v-245h78q245 0 245 285q0 141 -60 209t-170 68z" />
    <glyph glyph-name="Ntilde" unicode="&#xd1;" horiz-adv-x="690" 
d="M602 0h-104l-331 589h-4q2 -37 4.5 -83.5t2.5 -92.5v-413h-82v714h103l331 -584h4q-2 31 -4 81t-2 91v412h82v-714zM175 784q5 54 30 89.5t70 35.5q28 0 53 -14t47.5 -28.5t42.5 -14.5t30.5 15t17.5 43h50q-5 -58 -31 -91.5t-68 -33.5q-27 0 -52 14t-48 28.5t-43 14.5
t-31 -15t-17 -43h-51z" />
    <glyph glyph-name="Ograve" unicode="&#xd2;" horiz-adv-x="696" 
d="M640 358q0 -108 -32 -191t-96.5 -130t-162.5 -47q-101 0 -165.5 47.5t-95.5 131t-31 190.5q0 171 72.5 268.5t219.5 97.5q98 0 162.5 -47t96.5 -129.5t32 -190.5zM149 358q0 -138 49 -214t150 -76q102 0 150.5 75.5t48.5 214.5t-48 214t-150 75t-151 -75.5t-49 -213.5z
M327 944q11 -23 27 -50.5t34 -53.5t33 -44v-12h-57q-22 18 -50 46t-52.5 56.5t-36.5 47.5v10h102z" />
    <glyph glyph-name="Oacute" unicode="&#xd3;" horiz-adv-x="696" 
d="M640 358q0 -108 -32 -191t-96.5 -130t-162.5 -47q-101 0 -165.5 47.5t-95.5 131t-31 190.5q0 171 72.5 268.5t219.5 97.5q98 0 162.5 -47t96.5 -129.5t32 -190.5zM149 358q0 -138 49 -214t150 -76q102 0 150.5 75.5t48.5 214.5t-48 214t-150 75t-151 -75.5t-49 -213.5z
M490 934q-13 -19 -37.5 -47.5t-52.5 -56.5t-50 -46h-56v12q24 32 50 73t43 75h103v-10z" />
    <glyph glyph-name="Ocircumflex" unicode="&#xd4;" horiz-adv-x="696" 
d="M640 358q0 -108 -32 -191t-96.5 -130t-162.5 -47q-101 0 -165.5 47.5t-95.5 131t-31 190.5q0 171 72.5 268.5t219.5 97.5q98 0 162.5 -47t96.5 -129.5t32 -190.5zM149 358q0 -138 49 -214t150 -76q102 0 150.5 75.5t48.5 214.5t-48 214t-150 75t-151 -75.5t-49 -213.5z
M390 944q11 -22 31 -49.5t42 -53.5t40 -46v-11h-56q-24 17 -49.5 41t-50.5 50q-26 -26 -51 -50t-48 -41h-55v11q18 21 39.5 47.5t41 53t31.5 48.5h85z" />
    <glyph glyph-name="Otilde" unicode="&#xd5;" horiz-adv-x="696" 
d="M640 358q0 -108 -32 -191t-96.5 -130t-162.5 -47q-101 0 -165.5 47.5t-95.5 131t-31 190.5q0 171 72.5 268.5t219.5 97.5q98 0 162.5 -47t96.5 -129.5t32 -190.5zM149 358q0 -138 49 -214t150 -76q102 0 150.5 75.5t48.5 214.5t-48 214t-150 75t-151 -75.5t-49 -213.5z
M179 784q5 54 30 89.5t70 35.5q28 0 53 -14t47.5 -28.5t42.5 -14.5t30.5 15t17.5 43h50q-5 -58 -31 -91.5t-68 -33.5q-27 0 -52 14t-48 28.5t-43 14.5t-31 -15t-17 -43h-51z" />
    <glyph glyph-name="Odieresis" unicode="&#xd6;" horiz-adv-x="696" 
d="M640 358q0 -108 -32 -191t-96.5 -130t-162.5 -47q-101 0 -165.5 47.5t-95.5 131t-31 190.5q0 171 72.5 268.5t219.5 97.5q98 0 162.5 -47t96.5 -129.5t32 -190.5zM149 358q0 -138 49 -214t150 -76q102 0 150.5 75.5t48.5 214.5t-48 214t-150 75t-151 -75.5t-49 -213.5z
M214 854q0 26 13 38t32 12t32 -12t13 -38t-13 -38t-32 -12t-32 12t-13 38zM392 854q0 26 13.5 38t31.5 12q19 0 32.5 -12t13.5 -38t-13.5 -38t-32.5 -12q-18 0 -31.5 12t-13.5 38z" />
    <glyph glyph-name="multiply" unicode="&#xd7;" horiz-adv-x="520" 
d="M418 560l49 -49l-158 -158l156 -158l-48 -49l-159 157l-155 -157l-50 49l156 158l-157 157l50 50l157 -158z" />
    <glyph glyph-name="Oslash" unicode="&#xd8;" horiz-adv-x="696" 
d="M640 358q0 -114 -33.5 -196.5t-98 -127t-159.5 -44.5q-98 0 -163 47l-46 -74l-57 34l52 86q-40 49 -59 118.5t-19 157.5q0 171 72.5 268.5t219.5 97.5q47 0 87.5 -12.5t73.5 -35.5l44 72l57 -35l-51 -84q80 -96 80 -272zM149 358q0 -122 38 -192l279 439q-45 42 -117 42
q-102 0 -151 -75.5t-49 -213.5zM548 358q0 119 -39 190l-280 -440q47 -41 119 -41q103 0 151.5 76t48.5 215z" />
    <glyph glyph-name="Ugrave" unicode="&#xd9;" horiz-adv-x="654" 
d="M572 242q0 -115 -61 -183.5t-186 -68.5q-119 0 -181 66.5t-62 186.5v471h87v-474q0 -172 160 -172q81 0 118.5 45.5t37.5 127.5v473h87v-472zM306 944q11 -23 27 -50.5t34 -53.5t33 -44v-12h-57q-22 18 -50 46t-52.5 56.5t-36.5 47.5v10h102z" />
    <glyph glyph-name="Uacute" unicode="&#xda;" horiz-adv-x="654" 
d="M572 242q0 -115 -61 -183.5t-186 -68.5q-119 0 -181 66.5t-62 186.5v471h87v-474q0 -172 160 -172q81 0 118.5 45.5t37.5 127.5v473h87v-472zM469 934q-13 -19 -37.5 -47.5t-52.5 -56.5t-50 -46h-56v12q24 32 50 73t43 75h103v-10z" />
    <glyph glyph-name="Ucircumflex" unicode="&#xdb;" horiz-adv-x="654" 
d="M572 242q0 -115 -61 -183.5t-186 -68.5q-119 0 -181 66.5t-62 186.5v471h87v-474q0 -172 160 -172q81 0 118.5 45.5t37.5 127.5v473h87v-472zM369 944q11 -22 31 -49.5t42 -53.5t40 -46v-11h-56q-24 17 -49.5 41t-50.5 50q-26 -26 -51 -50t-48 -41h-55v11
q18 21 39.5 47.5t41 53t31.5 48.5h85z" />
    <glyph glyph-name="Udieresis" unicode="&#xdc;" horiz-adv-x="654" 
d="M572 242q0 -115 -61 -183.5t-186 -68.5q-119 0 -181 66.5t-62 186.5v471h87v-474q0 -172 160 -172q81 0 118.5 45.5t37.5 127.5v473h87v-472zM193 854q0 26 13 38t32 12t32 -12t13 -38t-13 -38t-32 -12t-32 12t-13 38zM371 854q0 26 13.5 38t31.5 12q19 0 32.5 -12
t13.5 -38t-13.5 -38t-32.5 -12q-18 0 -31.5 12t-13.5 38z" />
    <glyph glyph-name="Yacute" unicode="&#xdd;" horiz-adv-x="502" 
d="M251 369l158 345h93l-207 -437v-277h-88v274l-207 440h94zM393 934q-13 -19 -37.5 -47.5t-52.5 -56.5t-50 -46h-56v12q24 32 50 73t43 75h103v-10z" />
    <glyph glyph-name="Thorn" unicode="&#xde;" horiz-adv-x="543" 
d="M501 382q0 -64 -24.5 -115.5t-81 -81.5t-150.5 -30h-69v-155h-88v714h88v-124h78q130 0 188.5 -53.5t58.5 -154.5zM236 230q92 0 133.5 34.5t41.5 112.5q0 70 -38.5 103.5t-123.5 33.5h-73v-284h60z" />
    <glyph glyph-name="germandbls" unicode="&#xdf;" horiz-adv-x="567" 
d="M470 617q0 -41 -18.5 -69.5t-43 -50.5t-43 -41.5t-18.5 -43.5q0 -22 15.5 -40t60.5 -52q52 -41 78 -76.5t26 -90.5q0 -82 -46.5 -122.5t-123.5 -40.5q-80 0 -128 31v79q23 -14 55.5 -26t67.5 -12q47 0 69 22.5t22 62.5q0 34 -18.5 59t-64.5 60q-56 41 -76 72.5t-20 69.5
q0 30 12 51t30 38t35.5 33.5t30 36t12.5 46.5q0 40 -29.5 60t-77.5 20q-47 0 -80.5 -25.5t-33.5 -88.5v-579h-85v580q0 97 56 141t144 44q87 0 139.5 -37.5t52.5 -110.5z" />
    <glyph glyph-name="agrave" unicode="&#xe0;" horiz-adv-x="508" 
d="M261 546q89 0 130.5 -45t41.5 -137v-364h-63l-15 75h-3q-30 -43 -65.5 -64t-93.5 -21q-69 0 -110 42t-41 117q0 80 56.5 124t170.5 48l80 3v33q0 65 -24.5 92t-71.5 27q-35 0 -68.5 -11t-64.5 -27l-27 64q34 19 77 31.5t91 12.5zM281 260q-83 -3 -117 -31t-34 -80
q0 -46 23.5 -68t62.5 -22q58 0 95.5 39t37.5 115v50zM235 766q11 -23 27 -50.5t34 -53.5t33 -44v-12h-57q-22 18 -50 46t-52.5 56.5t-36.5 47.5v10h102z" />
    <glyph glyph-name="aacute" unicode="&#xe1;" horiz-adv-x="508" 
d="M261 546q89 0 130.5 -45t41.5 -137v-364h-63l-15 75h-3q-30 -43 -65.5 -64t-93.5 -21q-69 0 -110 42t-41 117q0 80 56.5 124t170.5 48l80 3v33q0 65 -24.5 92t-71.5 27q-35 0 -68.5 -11t-64.5 -27l-27 64q34 19 77 31.5t91 12.5zM281 260q-83 -3 -117 -31t-34 -80
q0 -46 23.5 -68t62.5 -22q58 0 95.5 39t37.5 115v50zM398 756q-13 -19 -37.5 -47.5t-52.5 -56.5t-50 -46h-56v12q24 32 50 73t43 75h103v-10z" />
    <glyph glyph-name="acircumflex" unicode="&#xe2;" horiz-adv-x="508" 
d="M261 546q89 0 130.5 -45t41.5 -137v-364h-63l-15 75h-3q-30 -43 -65.5 -64t-93.5 -21q-69 0 -110 42t-41 117q0 80 56.5 124t170.5 48l80 3v33q0 65 -24.5 92t-71.5 27q-35 0 -68.5 -11t-64.5 -27l-27 64q34 19 77 31.5t91 12.5zM281 260q-83 -3 -117 -31t-34 -80
q0 -46 23.5 -68t62.5 -22q58 0 95.5 39t37.5 115v50zM298 766q11 -22 31 -49.5t42 -53.5t40 -46v-11h-56q-24 17 -49.5 41t-50.5 50q-26 -26 -51 -50t-48 -41h-55v11q18 21 39.5 47.5t41 53t31.5 48.5h85z" />
    <glyph glyph-name="atilde" unicode="&#xe3;" horiz-adv-x="508" 
d="M261 546q89 0 130.5 -45t41.5 -137v-364h-63l-15 75h-3q-30 -43 -65.5 -64t-93.5 -21q-69 0 -110 42t-41 117q0 80 56.5 124t170.5 48l80 3v33q0 65 -24.5 92t-71.5 27q-35 0 -68.5 -11t-64.5 -27l-27 64q34 19 77 31.5t91 12.5zM281 260q-83 -3 -117 -31t-34 -80
q0 -46 23.5 -68t62.5 -22q58 0 95.5 39t37.5 115v50zM87 606q5 54 30 89.5t70 35.5q28 0 53 -14t47.5 -28.5t42.5 -14.5t30.5 15t17.5 43h50q-5 -58 -31 -91.5t-68 -33.5q-27 0 -52 14t-48 28.5t-43 14.5t-31 -15t-17 -43h-51z" />
    <glyph glyph-name="adieresis" unicode="&#xe4;" horiz-adv-x="508" 
d="M261 546q89 0 130.5 -45t41.5 -137v-364h-63l-15 75h-3q-30 -43 -65.5 -64t-93.5 -21q-69 0 -110 42t-41 117q0 80 56.5 124t170.5 48l80 3v33q0 65 -24.5 92t-71.5 27q-35 0 -68.5 -11t-64.5 -27l-27 64q34 19 77 31.5t91 12.5zM281 260q-83 -3 -117 -31t-34 -80
q0 -46 23.5 -68t62.5 -22q58 0 95.5 39t37.5 115v50zM122 676q0 26 13 38t32 12t32 -12t13 -38t-13 -38t-32 -12t-32 12t-13 38zM300 676q0 26 13.5 38t31.5 12q19 0 32.5 -12t13.5 -38t-13.5 -38t-32.5 -12q-18 0 -31.5 12t-13.5 38z" />
    <glyph glyph-name="aring" unicode="&#xe5;" horiz-adv-x="508" 
d="M261 546q89 0 130.5 -45t41.5 -137v-364h-63l-15 75h-3q-30 -43 -65.5 -64t-93.5 -21q-69 0 -110 42t-41 117q0 80 56.5 124t170.5 48l80 3v33q0 65 -24.5 92t-71.5 27q-35 0 -68.5 -11t-64.5 -27l-27 64q34 19 77 31.5t91 12.5zM281 260q-83 -3 -117 -31t-34 -80
q0 -46 23.5 -68t62.5 -22q58 0 95.5 39t37.5 115v50zM256 607q-49 0 -78.5 28t-29.5 76t29.5 75.5t78.5 27.5q46 0 77 -27t31 -75q0 -49 -30 -77t-78 -28zM256 657q24 0 39.5 14.5t15.5 39.5t-15.5 40t-39.5 15t-39.5 -15t-15.5 -40t14 -39.5t41 -14.5z" />
    <glyph glyph-name="ae" unicode="&#xe6;" horiz-adv-x="785" 
d="M545 546q61 0 104 -30.5t65.5 -84.5t22.5 -124v-55h-310q2 -96 37.5 -143t102.5 -47q43 0 78 9.5t70 27.5v-74q-36 -18 -71.5 -26.5t-80.5 -8.5q-63 0 -111 28t-75 83q-31 -53 -73 -82t-109 -29q-70 0 -111.5 42t-41.5 117q0 80 55 124t164 48l79 3v34q0 63 -25.5 90.5
t-71.5 27.5q-33 0 -67 -10.5t-65 -27.5l-27 64q33 19 76.5 31.5t89.5 12.5q109 0 146 -81q50 81 149 81zM544 476q-51 0 -81 -39.5t-35 -116.5h223q0 68 -26 112t-81 44zM274 260q-79 -3 -111.5 -30.5t-32.5 -80.5q0 -46 22.5 -68t59.5 -22q56 0 92 39t36 115v50z" />
    <glyph glyph-name="ccedilla" unicode="&#xe7;" horiz-adv-x="431" 
d="M271 -10q-101 0 -160.5 67t-59.5 208q0 142 61.5 211.5t163.5 69.5q37 0 70.5 -7.5t56.5 -19.5l-27 -71q-22 9 -49 16t-50 7q-138 0 -138 -205q0 -99 34 -150.5t101 -51.5q35 0 65 8t56 21v-74q-51 -29 -124 -29zM354 -138q0 -49 -35 -75.5t-102 -26.5q-34 0 -52 5v55
q19 -5 49 -5q70 0 70 45q0 27 -24 39t-62 18l40 83h55l-25 -52q38 -8 62 -29t24 -57z" />
    <glyph glyph-name="egrave" unicode="&#xe8;" horiz-adv-x="510" 
d="M264 546q63 0 108 -30.5t68.5 -85t23.5 -124.5v-54h-326q4 -189 152 -189q43 0 78 9t73 28v-75q-37 -18 -73.5 -26.5t-83.5 -8.5q-111 0 -172 73t-61 201q0 134 57 208t156 74zM263 476q-55 0 -86.5 -40t-37.5 -116h238q0 67 -27.5 111.5t-86.5 44.5zM236 766
q11 -23 27 -50.5t34 -53.5t33 -44v-12h-57q-22 18 -50 46t-52.5 56.5t-36.5 47.5v10h102z" />
    <glyph glyph-name="eacute" unicode="&#xe9;" horiz-adv-x="510" 
d="M264 546q63 0 108 -30.5t68.5 -85t23.5 -124.5v-54h-326q4 -189 152 -189q43 0 78 9t73 28v-75q-37 -18 -73.5 -26.5t-83.5 -8.5q-111 0 -172 73t-61 201q0 134 57 208t156 74zM263 476q-55 0 -86.5 -40t-37.5 -116h238q0 67 -27.5 111.5t-86.5 44.5zM400 756
q-13 -19 -37.5 -47.5t-52.5 -56.5t-50 -46h-56v12q24 32 50 73t43 75h103v-10z" />
    <glyph glyph-name="ecircumflex" unicode="&#xea;" horiz-adv-x="510" 
d="M264 546q63 0 108 -30.5t68.5 -85t23.5 -124.5v-54h-326q4 -189 152 -189q43 0 78 9t73 28v-75q-37 -18 -73.5 -26.5t-83.5 -8.5q-111 0 -172 73t-61 201q0 134 57 208t156 74zM263 476q-55 0 -86.5 -40t-37.5 -116h238q0 67 -27.5 111.5t-86.5 44.5zM300 766
q11 -22 31 -49.5t42 -53.5t40 -46v-11h-56q-24 17 -49.5 41t-50.5 50q-26 -26 -51 -50t-48 -41h-55v11q18 21 39.5 47.5t41 53t31.5 48.5h85z" />
    <glyph glyph-name="edieresis" unicode="&#xeb;" horiz-adv-x="510" 
d="M264 546q63 0 108 -30.5t68.5 -85t23.5 -124.5v-54h-326q4 -189 152 -189q43 0 78 9t73 28v-75q-37 -18 -73.5 -26.5t-83.5 -8.5q-111 0 -172 73t-61 201q0 134 57 208t156 74zM263 476q-55 0 -86.5 -40t-37.5 -116h238q0 67 -27.5 111.5t-86.5 44.5zM124 676q0 26 13 38
t32 12t32 -12t13 -38t-13 -38t-32 -12t-32 12t-13 38zM302 676q0 26 13.5 38t31.5 12q19 0 32.5 -12t13.5 -38t-13.5 -38t-32.5 -12q-18 0 -31.5 12t-13.5 38z" />
    <glyph glyph-name="igrave" unicode="&#xec;" horiz-adv-x="241" 
d="M163 0h-85v536h85v-536zM98 766q11 -23 27 -50.5t34 -53.5t33 -44v-12h-57q-22 18 -50 46t-52.5 56.5t-36.5 47.5v10h102z" />
    <glyph glyph-name="iacute" unicode="&#xed;" horiz-adv-x="241" 
d="M163 0h-85v536h85v-536zM262 756q-13 -19 -37.5 -47.5t-52.5 -56.5t-50 -46h-56v12q24 32 50 73t43 75h103v-10z" />
    <glyph glyph-name="icircumflex" unicode="&#xee;" horiz-adv-x="241" 
d="M163 0h-85v536h85v-536zM162 766q11 -22 31 -49.5t42 -53.5t40 -46v-11h-56q-24 17 -49.5 41t-50.5 50q-26 -26 -51 -50t-48 -41h-55v11q18 21 39.5 47.5t41 53t31.5 48.5h85z" />
    <glyph glyph-name="idieresis" unicode="&#xef;" horiz-adv-x="241" 
d="M163 0h-85v536h85v-536zM-14 676q0 26 13 38t32 12t32 -12t13 -38t-13 -38t-32 -12t-32 12t-13 38zM164 676q0 26 13.5 38t31.5 12q19 0 32.5 -12t13.5 -38t-13.5 -38t-32.5 -12q-18 0 -31.5 12t-13.5 38z" />
    <glyph glyph-name="eth" unicode="&#xf0;" horiz-adv-x="547" 
d="M195 764q27 -13 54.5 -29.5t52.5 -35.5l103 62l36 -51l-91 -54q68 -68 107.5 -164.5t39.5 -222.5q0 -139 -59 -209t-166 -70q-67 0 -117 31t-77.5 85.5t-27.5 126.5q0 113 57 176.5t153 63.5q45 0 79 -12.5t55 -40.5l4 2q-14 56 -44 104.5t-69 88.5l-111 -66l-35 51
l97 58q-18 14 -37.5 26.5t-39.5 24.5zM274 402q-71 0 -104 -44t-33 -128q0 -73 32.5 -121t104.5 -48t104.5 47t32.5 138q0 43 -15 78.5t-45 56.5t-77 21z" />
    <glyph glyph-name="ntilde" unicode="&#xf1;" horiz-adv-x="559" 
d="M313 546q85 0 128 -46t43 -145v-355h-85v345q0 128 -101 128q-75 0 -105 -48.5t-30 -146.5v-278h-85v536h68l12 -73h5q23 42 63.5 62.5t86.5 20.5zM112 606q5 54 30 89.5t70 35.5q28 0 53 -14t47.5 -28.5t42.5 -14.5t30.5 15t17.5 43h50q-5 -58 -31 -91.5t-68 -33.5
q-27 0 -52 14t-48 28.5t-43 14.5t-31 -15t-17 -43h-51z" />
    <glyph glyph-name="ograve" unicode="&#xf2;" horiz-adv-x="546" 
d="M497 269q0 -130 -59 -204.5t-166 -74.5q-67 0 -117 33.5t-77.5 96t-27.5 149.5q0 133 58.5 205t165.5 72q101 0 162 -71.5t61 -205.5zM138 269q0 -98 32.5 -152.5t103.5 -54.5q69 0 102 54t33 153q0 98 -33 151t-103 53q-71 0 -103 -53t-32 -151zM252 766
q11 -23 27 -50.5t34 -53.5t33 -44v-12h-57q-22 18 -50 46t-52.5 56.5t-36.5 47.5v10h102z" />
    <glyph glyph-name="oacute" unicode="&#xf3;" horiz-adv-x="546" 
d="M497 269q0 -130 -59 -204.5t-166 -74.5q-67 0 -117 33.5t-77.5 96t-27.5 149.5q0 133 58.5 205t165.5 72q101 0 162 -71.5t61 -205.5zM138 269q0 -98 32.5 -152.5t103.5 -54.5q69 0 102 54t33 153q0 98 -33 151t-103 53q-71 0 -103 -53t-32 -151zM415 756
q-13 -19 -37.5 -47.5t-52.5 -56.5t-50 -46h-56v12q24 32 50 73t43 75h103v-10z" />
    <glyph glyph-name="ocircumflex" unicode="&#xf4;" horiz-adv-x="546" 
d="M497 269q0 -130 -59 -204.5t-166 -74.5q-67 0 -117 33.5t-77.5 96t-27.5 149.5q0 133 58.5 205t165.5 72q101 0 162 -71.5t61 -205.5zM138 269q0 -98 32.5 -152.5t103.5 -54.5q69 0 102 54t33 153q0 98 -33 151t-103 53q-71 0 -103 -53t-32 -151zM315 766
q11 -22 31 -49.5t42 -53.5t40 -46v-11h-56q-24 17 -49.5 41t-50.5 50q-26 -26 -51 -50t-48 -41h-55v11q18 21 39.5 47.5t41 53t31.5 48.5h85z" />
    <glyph glyph-name="otilde" unicode="&#xf5;" horiz-adv-x="546" 
d="M497 269q0 -130 -59 -204.5t-166 -74.5q-67 0 -117 33.5t-77.5 96t-27.5 149.5q0 133 58.5 205t165.5 72q101 0 162 -71.5t61 -205.5zM138 269q0 -98 32.5 -152.5t103.5 -54.5q69 0 102 54t33 153q0 98 -33 151t-103 53q-71 0 -103 -53t-32 -151zM104 606q5 54 30 89.5
t70 35.5q28 0 53 -14t47.5 -28.5t42.5 -14.5t30.5 15t17.5 43h50q-5 -58 -31 -91.5t-68 -33.5q-27 0 -52 14t-48 28.5t-43 14.5t-31 -15t-17 -43h-51z" />
    <glyph glyph-name="odieresis" unicode="&#xf6;" horiz-adv-x="546" 
d="M497 269q0 -130 -59 -204.5t-166 -74.5q-67 0 -117 33.5t-77.5 96t-27.5 149.5q0 133 58.5 205t165.5 72q101 0 162 -71.5t61 -205.5zM138 269q0 -98 32.5 -152.5t103.5 -54.5q69 0 102 54t33 153q0 98 -33 151t-103 53q-71 0 -103 -53t-32 -151zM139 676q0 26 13 38
t32 12t32 -12t13 -38t-13 -38t-32 -12t-32 12t-13 38zM317 676q0 26 13.5 38t31.5 12q19 0 32.5 -12t13.5 -38t-13.5 -38t-32.5 -12q-18 0 -31.5 12t-13.5 38z" />
    <glyph glyph-name="divide" unicode="&#xf7;" horiz-adv-x="520" 
d="M260 465q-24 0 -39 14.5t-15 46.5q0 33 15 47t39 14q23 0 38 -14t15 -47q0 -32 -15.5 -46.5t-37.5 -14.5zM43 318v70h433v-70h-433zM260 118q-24 0 -39 14.5t-15 46.5q0 33 15 47t39 14q23 0 38 -14t15 -47q0 -32 -15.5 -46.5t-37.5 -14.5z" />
    <glyph glyph-name="oslash" unicode="&#xf8;" horiz-adv-x="546" 
d="M496 269q0 -133 -60 -206t-165 -73q-65 0 -114 32l-40 -67l-55 33l47 77q-59 75 -59 204q0 134 59 205.5t165 71.5q67 0 117 -35l38 62l56 -33l-45 -73q27 -36 41.5 -85.5t14.5 -112.5zM137 269q0 -39 5 -71t16 -56l194 305q-31 27 -79 27q-71 0 -103.5 -53t-32.5 -152z
M410 269q0 71 -19 120l-194 -303q30 -25 76 -25q70 0 103.5 54.5t33.5 153.5z" />
    <glyph glyph-name="ugrave" unicode="&#xf9;" horiz-adv-x="559" 
d="M481 536v-536h-69l-12 71h-5q-23 -41 -63 -61t-87 -20q-88 0 -130 49t-42 147v350h86v-341q0 -132 100 -132q77 0 107 48.5t30 143.5v281h85zM258 766q11 -23 27 -50.5t34 -53.5t33 -44v-12h-57q-22 18 -50 46t-52.5 56.5t-36.5 47.5v10h102z" />
    <glyph glyph-name="uacute" unicode="&#xfa;" horiz-adv-x="559" 
d="M481 536v-536h-69l-12 71h-5q-23 -41 -63 -61t-87 -20q-88 0 -130 49t-42 147v350h86v-341q0 -132 100 -132q77 0 107 48.5t30 143.5v281h85zM422 756q-13 -19 -37.5 -47.5t-52.5 -56.5t-50 -46h-56v12q24 32 50 73t43 75h103v-10z" />
    <glyph glyph-name="ucircumflex" unicode="&#xfb;" horiz-adv-x="559" 
d="M481 536v-536h-69l-12 71h-5q-23 -41 -63 -61t-87 -20q-88 0 -130 49t-42 147v350h86v-341q0 -132 100 -132q77 0 107 48.5t30 143.5v281h85zM322 766q11 -22 31 -49.5t42 -53.5t40 -46v-11h-56q-24 17 -49.5 41t-50.5 50q-26 -26 -51 -50t-48 -41h-55v11
q18 21 39.5 47.5t41 53t31.5 48.5h85z" />
    <glyph glyph-name="udieresis" unicode="&#xfc;" horiz-adv-x="559" 
d="M481 536v-536h-69l-12 71h-5q-23 -41 -63 -61t-87 -20q-88 0 -130 49t-42 147v350h86v-341q0 -132 100 -132q77 0 107 48.5t30 143.5v281h85zM146 676q0 26 13 38t32 12t32 -12t13 -38t-13 -38t-32 -12t-32 12t-13 38zM324 676q0 26 13.5 38t31.5 12q19 0 32.5 -12
t13.5 -38t-13.5 -38t-32.5 -12q-18 0 -31.5 12t-13.5 38z" />
    <glyph glyph-name="yacute" unicode="&#xfd;" horiz-adv-x="459" 
d="M2 536h90l101 -304q11 -36 21 -70.5t16 -66.5h4q5 25 15 62t23 75l95 304h90l-204 -613q-26 -78 -66.5 -120.5t-109.5 -42.5q-20 0 -36 2.5t-29 5.5v71q10 -3 24 -5t28 -2q39 0 63 24.5t40 73.5l24 70zM371 756q-13 -19 -37.5 -47.5t-52.5 -56.5t-50 -46h-56v12
q24 32 50 73t43 75h103v-10z" />
    <glyph glyph-name="thorn" unicode="&#xfe;" horiz-adv-x="559" 
d="M509 269q0 -136 -53 -207.5t-142 -71.5q-55 0 -92 22.5t-59 56.5h-5q1 -14 3 -39t2 -40v-230h-85v1000h85v-221q0 -17 -1 -38t-2 -37h4q23 37 58.5 59.5t89.5 22.5q91 0 144 -70.5t53 -206.5zM421 269q0 104 -30 154t-95 50q-71 0 -101.5 -45.5t-31.5 -140.5v-19
q0 -102 29.5 -154t104.5 -52q67 0 95.5 56.5t28.5 150.5z" />
    <glyph glyph-name="ydieresis" unicode="&#xff;" horiz-adv-x="459" 
d="M2 536h90l101 -304q11 -36 21 -70.5t16 -66.5h4q5 25 15 62t23 75l95 304h90l-204 -613q-26 -78 -66.5 -120.5t-109.5 -42.5q-20 0 -36 2.5t-29 5.5v71q10 -3 24 -5t28 -2q39 0 63 24.5t40 73.5l24 70zM95 676q0 26 13 38t32 12t32 -12t13 -38t-13 -38t-32 -12t-32 12
t-13 38zM273 676q0 26 13.5 38t31.5 12q19 0 32.5 -12t13.5 -38t-13.5 -38t-32.5 -12q-18 0 -31.5 12t-13.5 38z" />
    <glyph glyph-name="Amacron" unicode="&#x100;" horiz-adv-x="570" 
d="M478 0l-74 222h-240l-73 -222h-91l240 716h88l241 -716h-91zM311 524q-3 11 -8.5 31t-11 40.5t-8.5 33.5q-5 -28 -12.5 -56t-13.5 -49l-70 -223h194zM421 855v-68h-277v68h277z" />
    <glyph glyph-name="amacron" unicode="&#x101;" horiz-adv-x="508" 
d="M261 546q89 0 130.5 -45t41.5 -137v-364h-63l-15 75h-3q-30 -43 -65.5 -64t-93.5 -21q-69 0 -110 42t-41 117q0 80 56.5 124t170.5 48l80 3v33q0 65 -24.5 92t-71.5 27q-35 0 -68.5 -11t-64.5 -27l-27 64q34 19 77 31.5t91 12.5zM281 260q-83 -3 -117 -31t-34 -80
q0 -46 23.5 -68t62.5 -22q58 0 95.5 39t37.5 115v50zM394 677v-68h-277v68h277z" />
    <glyph glyph-name="Abreve" unicode="&#x102;" horiz-adv-x="570" 
d="M478 0l-74 222h-240l-73 -222h-91l240 716h88l241 -716h-91zM311 524q-3 11 -8.5 31t-11 40.5t-8.5 33.5q-5 -28 -12.5 -56t-13.5 -49l-70 -223h194zM426 918q-3 -60 -41 -97t-104 -37q-67 0 -102.5 35.5t-38.5 98.5h54q4 -39 26.5 -52.5t62.5 -13.5q36 0 60.5 14
t29.5 52h53z" />
    <glyph glyph-name="abreve" unicode="&#x103;" horiz-adv-x="508" 
d="M261 546q89 0 130.5 -45t41.5 -137v-364h-63l-15 75h-3q-30 -43 -65.5 -64t-93.5 -21q-69 0 -110 42t-41 117q0 80 56.5 124t170.5 48l80 3v33q0 65 -24.5 92t-71.5 27q-35 0 -68.5 -11t-64.5 -27l-27 64q34 19 77 31.5t91 12.5zM281 260q-83 -3 -117 -31t-34 -80
q0 -46 23.5 -68t62.5 -22q58 0 95.5 39t37.5 115v50zM399 740q-3 -60 -41 -97t-104 -37q-67 0 -102.5 35.5t-38.5 98.5h54q4 -39 26.5 -52.5t62.5 -13.5q36 0 60.5 14t29.5 52h53z" />
    <glyph glyph-name="Aogonek" unicode="&#x104;" horiz-adv-x="570" 
d="M478 0l-74 222h-240l-73 -222h-91l240 716h88l241 -716h-91zM311 524q-3 11 -8.5 31t-11 40.5t-8.5 33.5q-5 -28 -12.5 -56t-13.5 -49l-70 -223h194zM477 -116q0 -47 45 -47q15 0 25 2t17 4v-56q-12 -4 -25.5 -6t-31.5 -2q-51 0 -75.5 24t-24.5 69q0 41 27.5 79t60.5 63
l47 -14q-34 -33 -49.5 -59.5t-15.5 -56.5z" />
    <glyph glyph-name="aogonek" unicode="&#x105;" horiz-adv-x="508" 
d="M261 546q89 0 130.5 -45t41.5 -137v-364h-63l-15 75h-3q-30 -43 -65.5 -64t-93.5 -21q-69 0 -110 42t-41 117q0 80 56.5 124t170.5 48l80 3v33q0 65 -24.5 92t-71.5 27q-35 0 -68.5 -11t-64.5 -27l-27 64q34 19 77 31.5t91 12.5zM281 260q-83 -3 -117 -31t-34 -80
q0 -46 23.5 -68t62.5 -22q58 0 95.5 39t37.5 115v50zM366 -116q0 -47 45 -47q15 0 25 2t17 4v-56q-12 -4 -25.5 -6t-31.5 -2q-51 0 -75.5 24t-24.5 69q0 41 27.5 79t60.5 63l47 -14q-34 -33 -49.5 -59.5t-15.5 -56.5z" />
    <glyph glyph-name="Cacute" unicode="&#x106;" horiz-adv-x="564" 
d="M362 646q-68 0 -116 -36.5t-72.5 -102t-24.5 -150.5q0 -134 55 -211.5t160 -77.5q40 0 76.5 8t70.5 20v-78q-34 -14 -71.5 -21t-87.5 -7q-97 0 -162.5 44.5t-99 127t-33.5 196.5q0 106 34.5 188.5t102.5 130t168 47.5q98 0 173 -39l-33 -75q-30 15 -64.5 25.5t-75.5 10.5
zM484 934q-13 -19 -37.5 -47.5t-52.5 -56.5t-50 -46h-56v12q24 32 50 73t43 75h103v-10z" />
    <glyph glyph-name="cacute" unicode="&#x107;" horiz-adv-x="431" 
d="M271 -10q-101 0 -160.5 67t-59.5 208q0 142 61.5 211.5t163.5 69.5q37 0 70.5 -7.5t56.5 -19.5l-27 -71q-22 9 -49 16t-50 7q-138 0 -138 -205q0 -99 34 -150.5t101 -51.5q35 0 65 8t56 21v-74q-51 -29 -124 -29zM398 756q-13 -19 -37.5 -47.5t-52.5 -56.5t-50 -46h-56
v12q24 32 50 73t43 75h103v-10z" />
    <glyph glyph-name="Ccircumflex" unicode="&#x108;" horiz-adv-x="564" 
d="M362 646q-68 0 -116 -36.5t-72.5 -102t-24.5 -150.5q0 -134 55 -211.5t160 -77.5q40 0 76.5 8t70.5 20v-78q-34 -14 -71.5 -21t-87.5 -7q-97 0 -162.5 44.5t-99 127t-33.5 196.5q0 106 34.5 188.5t102.5 130t168 47.5q98 0 173 -39l-33 -75q-30 15 -64.5 25.5t-75.5 10.5
zM384 944q11 -22 31 -49.5t42 -53.5t40 -46v-11h-56q-24 17 -49.5 41t-50.5 50q-26 -26 -51 -50t-48 -41h-55v11q18 21 39.5 47.5t41 53t31.5 48.5h85z" />
    <glyph glyph-name="ccircumflex" unicode="&#x109;" horiz-adv-x="431" 
d="M271 -10q-101 0 -160.5 67t-59.5 208q0 142 61.5 211.5t163.5 69.5q37 0 70.5 -7.5t56.5 -19.5l-27 -71q-22 9 -49 16t-50 7q-138 0 -138 -205q0 -99 34 -150.5t101 -51.5q35 0 65 8t56 21v-74q-51 -29 -124 -29zM298 766q11 -22 31 -49.5t42 -53.5t40 -46v-11h-56
q-24 17 -49.5 41t-50.5 50q-26 -26 -51 -50t-48 -41h-55v11q18 21 39.5 47.5t41 53t31.5 48.5h85z" />
    <glyph glyph-name="Cdotaccent" unicode="&#x10a;" horiz-adv-x="564" 
d="M362 646q-68 0 -116 -36.5t-72.5 -102t-24.5 -150.5q0 -134 55 -211.5t160 -77.5q40 0 76.5 8t70.5 20v-78q-34 -14 -71.5 -21t-87.5 -7q-97 0 -162.5 44.5t-99 127t-33.5 196.5q0 106 34.5 188.5t102.5 130t168 47.5q98 0 173 -39l-33 -75q-30 15 -64.5 25.5t-75.5 10.5
zM344 916q21 0 35 -14t14 -43q0 -28 -14 -42t-35 -14q-22 0 -36.5 14t-14.5 42q0 29 14 43t37 14z" />
    <glyph glyph-name="cdotaccent" unicode="&#x10b;" horiz-adv-x="431" 
d="M271 -10q-101 0 -160.5 67t-59.5 208q0 142 61.5 211.5t163.5 69.5q37 0 70.5 -7.5t56.5 -19.5l-27 -71q-22 9 -49 16t-50 7q-138 0 -138 -205q0 -99 34 -150.5t101 -51.5q35 0 65 8t56 21v-74q-51 -29 -124 -29zM258 738q21 0 35 -14t14 -43q0 -28 -14 -42t-35 -14
q-22 0 -36.5 14t-14.5 42q0 29 14 43t37 14z" />
    <glyph glyph-name="Ccaron" unicode="&#x10c;" horiz-adv-x="564" 
d="M362 646q-68 0 -116 -36.5t-72.5 -102t-24.5 -150.5q0 -134 55 -211.5t160 -77.5q40 0 76.5 8t70.5 20v-78q-34 -14 -71.5 -21t-87.5 -7q-97 0 -162.5 44.5t-99 127t-33.5 196.5q0 106 34.5 188.5t102.5 130t168 47.5q98 0 173 -39l-33 -75q-30 15 -64.5 25.5t-75.5 10.5
zM299 784q-12 22 -31.5 48.5t-41 52.5t-39.5 47v12h55q23 -17 49 -41.5t50 -51.5q26 28 50 50t50 43h56v-12q-17 -19 -39.5 -45t-42.5 -53t-31 -50h-85z" />
    <glyph glyph-name="ccaron" unicode="&#x10d;" horiz-adv-x="431" 
d="M271 -10q-101 0 -160.5 67t-59.5 208q0 142 61.5 211.5t163.5 69.5q37 0 70.5 -7.5t56.5 -19.5l-27 -71q-22 9 -49 16t-50 7q-138 0 -138 -205q0 -99 34 -150.5t101 -51.5q35 0 65 8t56 21v-74q-51 -29 -124 -29zM213 606q-12 22 -31.5 48.5t-41 52.5t-39.5 47v12h55
q23 -17 49 -41.5t50 -51.5q26 28 50 50t50 43h56v-12q-17 -19 -39.5 -45t-42.5 -53t-31 -50h-85z" />
    <glyph glyph-name="Dcaron" unicode="&#x10e;" horiz-adv-x="652" 
d="M595 365q0 -181 -85.5 -273t-242.5 -92h-179v714h195q145 0 228.5 -89t83.5 -260zM503 361q0 141 -59.5 209t-170.5 68h-97v-562h82q245 0 245 285zM278 784q-12 22 -31.5 48.5t-41 52.5t-39.5 47v12h55q23 -17 49 -41.5t50 -51.5q26 28 50 50t50 43h56v-12
q-17 -19 -39.5 -45t-42.5 -53t-31 -50h-85z" />
    <glyph glyph-name="dcaron" unicode="&#x10f;" horiz-adv-x="559" 
d="M636 751q-4 -20 -15 -47.5t-25 -55.5t-28 -48h-47v12q5 16 11 43.5t11 56.5t7 48h86v-9zM247 -10q-91 0 -144 70t-53 207t53 208t144 71q53 0 89.5 -22t59.5 -57h5q-1 17 -3 39.5t-2 38.5v215h86v-760h-69l-12 71h-5q-23 -36 -59 -58.5t-90 -22.5zM263 62q72 0 103 46
t31 140v21q0 101 -30 153t-105 52q-63 0 -93.5 -55.5t-30.5 -152.5q0 -99 31 -151.5t94 -52.5z" />
    <glyph glyph-name="Dcroat" unicode="&#x110;" horiz-adv-x="652" 
d="M282 714q146 0 229.5 -89t83.5 -260q0 -181 -86 -273t-243 -92h-174v321h-65v74h65v319h190zM273 638h-93v-243h149v-74h-149v-245h78q245 0 245 285q0 141 -60 209t-170 68z" />
    <glyph glyph-name="dcroat" unicode="&#x111;" horiz-adv-x="560" 
d="M247 -10q-92 0 -144.5 70t-52.5 205q0 137 53 207t143 70q53 0 90 -22t60 -57h5q-2 16 -3.5 39t-1.5 39v65h-176v65h176v89h86v-89h69v-65h-69v-606h-70l-12 71h-5q-23 -37 -58.5 -59t-89.5 -22zM264 62q71 0 102 46t31 141v18q0 101 -30 151.5t-105 50.5q-63 0 -93 -54
t-30 -151q0 -98 30.5 -150t94.5 -52z" />
    <glyph glyph-name="Emacron" unicode="&#x112;" horiz-adv-x="500" 
d="M445 0h-357v714h357v-78h-269v-225h253v-77h-253v-256h269v-78zM410 855v-68h-277v68h277z" />
    <glyph glyph-name="emacron" unicode="&#x113;" horiz-adv-x="510" 
d="M264 546q63 0 108 -30.5t68.5 -85t23.5 -124.5v-54h-326q4 -189 152 -189q43 0 78 9t73 28v-75q-37 -18 -73.5 -26.5t-83.5 -8.5q-111 0 -172 73t-61 201q0 134 57 208t156 74zM263 476q-55 0 -86.5 -40t-37.5 -116h238q0 67 -27.5 111.5t-86.5 44.5zM396 677v-68h-277
v68h277z" />
    <glyph glyph-name="Ebreve" unicode="&#x114;" horiz-adv-x="500" 
d="M445 0h-357v714h357v-78h-269v-225h253v-77h-253v-256h269v-78zM415 918q-3 -60 -41 -97t-104 -37q-67 0 -102.5 35.5t-38.5 98.5h54q4 -39 26.5 -52.5t62.5 -13.5q36 0 60.5 14t29.5 52h53z" />
    <glyph glyph-name="ebreve" unicode="&#x115;" horiz-adv-x="510" 
d="M264 546q63 0 108 -30.5t68.5 -85t23.5 -124.5v-54h-326q4 -189 152 -189q43 0 78 9t73 28v-75q-37 -18 -73.5 -26.5t-83.5 -8.5q-111 0 -172 73t-61 201q0 134 57 208t156 74zM263 476q-55 0 -86.5 -40t-37.5 -116h238q0 67 -27.5 111.5t-86.5 44.5zM401 740
q-3 -60 -41 -97t-104 -37q-67 0 -102.5 35.5t-38.5 98.5h54q4 -39 26.5 -52.5t62.5 -13.5q36 0 60.5 14t29.5 52h53z" />
    <glyph glyph-name="Edotaccent" unicode="&#x116;" horiz-adv-x="500" 
d="M445 0h-357v714h357v-78h-269v-225h253v-77h-253v-256h269v-78zM274 916q21 0 35 -14t14 -43q0 -28 -14 -42t-35 -14q-22 0 -36.5 14t-14.5 42q0 29 14 43t37 14z" />
    <glyph glyph-name="edotaccent" unicode="&#x117;" horiz-adv-x="510" 
d="M264 546q63 0 108 -30.5t68.5 -85t23.5 -124.5v-54h-326q4 -189 152 -189q43 0 78 9t73 28v-75q-37 -18 -73.5 -26.5t-83.5 -8.5q-111 0 -172 73t-61 201q0 134 57 208t156 74zM263 476q-55 0 -86.5 -40t-37.5 -116h238q0 67 -27.5 111.5t-86.5 44.5zM260 738
q21 0 35 -14t14 -43q0 -28 -14 -42t-35 -14q-22 0 -36.5 14t-14.5 42q0 29 14 43t37 14z" />
    <glyph glyph-name="Eogonek" unicode="&#x118;" horiz-adv-x="500" 
d="M445 0h-357v714h357v-78h-269v-225h253v-77h-253v-256h269v-78zM352 -116q0 -47 45 -47q15 0 25 2t17 4v-56q-12 -4 -25.5 -6t-31.5 -2q-51 0 -75.5 24t-24.5 69q0 41 27.5 79t60.5 63l47 -14q-34 -33 -49.5 -59.5t-15.5 -56.5z" />
    <glyph glyph-name="eogonek" unicode="&#x119;" horiz-adv-x="510" 
d="M348 -116q0 -46 45 -46q14 0 24.5 2t17.5 4v-56q-12 -4 -26 -6.5t-32 -2.5q-51 0 -75 24.5t-24 69.5q0 34 20 66t45 55q-27 -4 -59 -4q-111 0 -172 73t-61 201q0 134 57 208t156 74q63 0 108 -30.5t68.5 -85t23.5 -124.5v-54h-326q4 -189 152 -189q43 0 78 9t73 28v-75
q-53 -45 -73 -78t-20 -63zM263 476q-55 0 -86.5 -40t-37.5 -116h238q0 67 -27.5 111.5t-86.5 44.5z" />
    <glyph glyph-name="Ecaron" unicode="&#x11a;" horiz-adv-x="500" 
d="M445 0h-357v714h357v-78h-269v-225h253v-77h-253v-256h269v-78zM229 784q-12 22 -31.5 48.5t-41 52.5t-39.5 47v12h55q23 -17 49 -41.5t50 -51.5q26 28 50 50t50 43h56v-12q-17 -19 -39.5 -45t-42.5 -53t-31 -50h-85z" />
    <glyph glyph-name="ecaron" unicode="&#x11b;" horiz-adv-x="510" 
d="M264 546q63 0 108 -30.5t68.5 -85t23.5 -124.5v-54h-326q4 -189 152 -189q43 0 78 9t73 28v-75q-37 -18 -73.5 -26.5t-83.5 -8.5q-111 0 -172 73t-61 201q0 134 57 208t156 74zM263 476q-55 0 -86.5 -40t-37.5 -116h238q0 67 -27.5 111.5t-86.5 44.5zM215 606
q-12 22 -31.5 48.5t-41 52.5t-39.5 47v12h55q23 -17 49 -41.5t50 -51.5q26 28 50 50t50 43h56v-12q-17 -19 -39.5 -45t-42.5 -53t-31 -50h-85z" />
    <glyph glyph-name="Gcircumflex" unicode="&#x11c;" horiz-adv-x="661" 
d="M371 377h223v-351q-53 -18 -107.5 -27t-119.5 -9q-103 0 -171.5 46t-103.5 128.5t-35 193.5q0 109 38.5 191.5t113 128.5t181.5 46q55 0 104 -11.5t91 -31.5l-33 -76q-36 18 -78 29.5t-86 11.5q-114 0 -176.5 -76t-62.5 -213q0 -84 23.5 -149.5t75 -103t135.5 -37.5
q40 0 69.5 5t54.5 12v215h-136v78zM411 944q11 -22 31 -49.5t42 -53.5t40 -46v-11h-56q-24 17 -49.5 41t-50.5 50q-26 -26 -51 -50t-48 -41h-55v11q18 21 39.5 47.5t41 53t31.5 48.5h85z" />
    <glyph glyph-name="gcircumflex" unicode="&#x11d;" horiz-adv-x="559" 
d="M247 546q47 0 84.5 -19.5t64.5 -61.5h5l11 71h70v-544q0 -114 -55 -173t-172 -59q-100 0 -169 33v79q75 -39 172 -39q66 0 102.5 37t36.5 111v19q0 14 1 36t2 36h-4q-50 -82 -149 -82q-93 0 -145 72t-52 205q0 132 52.5 205.5t144.5 73.5zM261 473q-60 0 -91.5 -53.5
t-31.5 -153.5q0 -204 125 -204q69 0 101.5 44.5t32.5 139.5v22q0 109 -32.5 157t-103.5 48zM318 766q11 -22 31 -49.5t42 -53.5t40 -46v-11h-56q-24 17 -49.5 41t-50.5 50q-26 -26 -51 -50t-48 -41h-55v11q18 21 39.5 47.5t41 53t31.5 48.5h85z" />
    <glyph glyph-name="Gbreve" unicode="&#x11e;" horiz-adv-x="661" 
d="M371 377h223v-351q-53 -18 -107.5 -27t-119.5 -9q-103 0 -171.5 46t-103.5 128.5t-35 193.5q0 109 38.5 191.5t113 128.5t181.5 46q55 0 104 -11.5t91 -31.5l-33 -76q-36 18 -78 29.5t-86 11.5q-114 0 -176.5 -76t-62.5 -213q0 -84 23.5 -149.5t75 -103t135.5 -37.5
q40 0 69.5 5t54.5 12v215h-136v78zM512 918q-3 -60 -41 -97t-104 -37q-67 0 -102.5 35.5t-38.5 98.5h54q4 -39 26.5 -52.5t62.5 -13.5q36 0 60.5 14t29.5 52h53z" />
    <glyph glyph-name="gbreve" unicode="&#x11f;" horiz-adv-x="559" 
d="M247 546q47 0 84.5 -19.5t64.5 -61.5h5l11 71h70v-544q0 -114 -55 -173t-172 -59q-100 0 -169 33v79q75 -39 172 -39q66 0 102.5 37t36.5 111v19q0 14 1 36t2 36h-4q-50 -82 -149 -82q-93 0 -145 72t-52 205q0 132 52.5 205.5t144.5 73.5zM261 473q-60 0 -91.5 -53.5
t-31.5 -153.5q0 -204 125 -204q69 0 101.5 44.5t32.5 139.5v22q0 109 -32.5 157t-103.5 48zM418 740q-3 -60 -41 -97t-104 -37q-67 0 -102.5 35.5t-38.5 98.5h54q4 -39 26.5 -52.5t62.5 -13.5q36 0 60.5 14t29.5 52h53z" />
    <glyph glyph-name="Gdotaccent" unicode="&#x120;" horiz-adv-x="661" 
d="M371 377h223v-351q-53 -18 -107.5 -27t-119.5 -9q-103 0 -171.5 46t-103.5 128.5t-35 193.5q0 109 38.5 191.5t113 128.5t181.5 46q55 0 104 -11.5t91 -31.5l-33 -76q-36 18 -78 29.5t-86 11.5q-114 0 -176.5 -76t-62.5 -213q0 -84 23.5 -149.5t75 -103t135.5 -37.5
q40 0 69.5 5t54.5 12v215h-136v78zM371 916q21 0 35 -14t14 -43q0 -28 -14 -42t-35 -14q-22 0 -36.5 14t-14.5 42q0 29 14 43t37 14z" />
    <glyph glyph-name="gdotaccent" unicode="&#x121;" horiz-adv-x="559" 
d="M247 546q47 0 84.5 -19.5t64.5 -61.5h5l11 71h70v-544q0 -114 -55 -173t-172 -59q-100 0 -169 33v79q75 -39 172 -39q66 0 102.5 37t36.5 111v19q0 14 1 36t2 36h-4q-50 -82 -149 -82q-93 0 -145 72t-52 205q0 132 52.5 205.5t144.5 73.5zM261 473q-60 0 -91.5 -53.5
t-31.5 -153.5q0 -204 125 -204q69 0 101.5 44.5t32.5 139.5v22q0 109 -32.5 157t-103.5 48zM277 738q21 0 35 -14t14 -43q0 -28 -14 -42t-35 -14q-22 0 -36.5 14t-14.5 42q0 29 14 43t37 14z" />
    <glyph glyph-name="uni0122" unicode="&#x122;" horiz-adv-x="661" 
d="M371 377h223v-351q-53 -18 -107.5 -27t-119.5 -9q-103 0 -171.5 46t-103.5 128.5t-35 193.5q0 109 38.5 191.5t113 128.5t181.5 46q55 0 104 -11.5t91 -31.5l-33 -76q-36 18 -78 29.5t-86 11.5q-114 0 -176.5 -76t-62.5 -213q0 -84 23.5 -149.5t75 -103t135.5 -37.5
q40 0 69.5 5t54.5 12v215h-136v78zM429 -70q-5 -21 -17 -48t-27 -54.5t-32 -48.5h-47v12q7 17 15 44t14 55t9 49h85v-9z" />
    <glyph glyph-name="uni0123" unicode="&#x123;" horiz-adv-x="559" 
d="M337 754q-8 -17 -16.5 -44t-15 -55.5t-9.5 -48.5h-85v9q5 20 16.5 47.5t27.5 55t34 48.5h48v-12zM247 546q47 0 84.5 -19.5t64.5 -61.5h5l11 71h70v-544q0 -114 -55 -173t-172 -59q-100 0 -169 33v79q75 -39 172 -39q66 0 102.5 37t36.5 111v19q0 14 1 36t2 36h-4
q-50 -82 -149 -82q-93 0 -145 72t-52 205q0 132 52.5 205.5t144.5 73.5zM261 473q-60 0 -91.5 -53.5t-31.5 -153.5q0 -204 125 -204q69 0 101.5 44.5t32.5 139.5v22q0 109 -32.5 157t-103.5 48z" />
    <glyph glyph-name="Hcircumflex" unicode="&#x124;" horiz-adv-x="665" 
d="M576 0h-88v334h-312v-334h-88v714h88v-302h312v302h88v-714zM375 944q11 -22 31 -49.5t42 -53.5t40 -46v-11h-56q-24 17 -49.5 41t-50.5 50q-26 -26 -51 -50t-48 -41h-55v11q18 21 39.5 47.5t41 53t31.5 48.5h85z" />
    <glyph glyph-name="hcircumflex" unicode="&#x125;" horiz-adv-x="559" 
d="M163 540q0 -42 -5 -77h6q21 41 61 62t87 21q87 0 129.5 -47t42.5 -144v-355h-85v345q0 65 -24 96.5t-77 31.5q-76 0 -105.5 -49.5t-29.5 -145.5v-278h-85v760h85v-220zM163 990q11 -22 31 -49.5t42 -53.5t40 -46v-11h-56q-24 17 -49.5 41t-50.5 50q-26 -26 -51 -50
t-48 -41h-55v11q18 21 39.5 47.5t41 53t31.5 48.5h85z" />
    <glyph glyph-name="Hbar" unicode="&#x126;" horiz-adv-x="665" 
d="M88 0v526h-89v69h89v119h88v-119h312v119h88v-119h88v-69h-88v-526h-88v333h-312v-333h-88zM176 412h312v114h-312v-114z" />
    <glyph glyph-name="hbar" unicode="&#x127;" horiz-adv-x="559" 
d="M163 760v-90h177v-65h-177v-84q0 -37 -5 -72h6q21 40 61 61t87 21q87 0 129.5 -47t42.5 -145v-339h-85v330q0 65 -24 96.5t-77 31.5q-75 0 -105 -48.5t-30 -146.5v-263h-85v605h-70v65h70v90h85z" />
    <glyph glyph-name="Itilde" unicode="&#x128;" horiz-adv-x="318" 
d="M280 0h-242v51l77 18v576l-77 18v51h242v-51l-77 -18v-576l77 -18v-51zM-10 784q5 54 30 89.5t70 35.5q28 0 53 -14t47.5 -28.5t42.5 -14.5t30.5 15t17.5 43h50q-5 -58 -31 -91.5t-68 -33.5q-27 0 -52 14t-48 28.5t-43 14.5t-31 -15t-17 -43h-51z" />
    <glyph glyph-name="itilde" unicode="&#x129;" horiz-adv-x="241" 
d="M163 0h-85v536h85v-536zM-50 606q5 54 30 89.5t70 35.5q28 0 53 -14t47.5 -28.5t42.5 -14.5t30.5 15t17.5 43h50q-5 -58 -31 -91.5t-68 -33.5q-27 0 -52 14t-48 28.5t-43 14.5t-31 -15t-17 -43h-51z" />
    <glyph glyph-name="Imacron" unicode="&#x12a;" horiz-adv-x="318" 
d="M280 0h-242v51l77 18v576l-77 18v51h242v-51l-77 -18v-576l77 -18v-51zM297 855v-68h-277v68h277z" />
    <glyph glyph-name="imacron" unicode="&#x12b;" horiz-adv-x="241" 
d="M163 0h-85v536h85v-536zM258 677v-68h-277v68h277z" />
    <glyph glyph-name="Ibreve" unicode="&#x12c;" horiz-adv-x="318" 
d="M280 0h-242v51l77 18v576l-77 18v51h242v-51l-77 -18v-576l77 -18v-51zM302 918q-3 -60 -41 -97t-104 -37q-67 0 -102.5 35.5t-38.5 98.5h54q4 -39 26.5 -52.5t62.5 -13.5q36 0 60.5 14t29.5 52h53z" />
    <glyph glyph-name="ibreve" unicode="&#x12d;" horiz-adv-x="241" 
d="M163 0h-85v536h85v-536zM263 740q-3 -60 -41 -97t-104 -37q-67 0 -102.5 35.5t-38.5 98.5h54q4 -39 26.5 -52.5t62.5 -13.5q36 0 60.5 14t29.5 52h53z" />
    <glyph glyph-name="Iogonek" unicode="&#x12e;" horiz-adv-x="318" 
d="M280 0h-242v51l77 18v576l-77 18v51h242v-51l-77 -18v-576l77 -18v-51zM189 -116q0 -47 45 -47q15 0 25 2t17 4v-56q-12 -4 -25.5 -6t-31.5 -2q-51 0 -75.5 24t-24.5 69q0 41 27.5 79t60.5 63l47 -14q-34 -33 -49.5 -59.5t-15.5 -56.5z" />
    <glyph glyph-name="iogonek" unicode="&#x12f;" horiz-adv-x="241" 
d="M122 738q21 0 35 -14t14 -43q0 -28 -14 -42t-35 -14q-22 0 -36.5 14t-14.5 42q0 29 14 43t37 14zM163 536v-536h-85v536h85zM92 -116q0 -47 45 -47q15 0 25 2t17 4v-56q-12 -4 -25.5 -6t-31.5 -2q-51 0 -75.5 24t-24.5 69q0 41 27.5 79t60.5 63l47 -14
q-34 -33 -49.5 -59.5t-15.5 -56.5z" />
    <glyph glyph-name="Idotaccent" unicode="&#x130;" horiz-adv-x="318" 
d="M280 0h-242v51l77 18v576l-77 18v51h242v-51l-77 -18v-576l77 -18v-51zM161 916q21 0 35 -14t14 -43q0 -28 -14 -42t-35 -14q-22 0 -36.5 14t-14.5 42q0 29 14 43t37 14z" />
    <glyph glyph-name="dotlessi" unicode="&#x131;" horiz-adv-x="241" 
d="M163 0h-85v536h85v-536z" />
    <glyph glyph-name="IJ" unicode="&#x132;" horiz-adv-x="567" 
d="M280 0h-242v51l77 18v576l-77 18v51h242v-51l-77 -18v-576l77 -18v-51zM315 -191q-42 0 -70 12v76q14 -5 30.5 -7.5t35.5 -2.5q36 0 60.5 25t24.5 93v709h88v-707q0 -104 -45.5 -151t-123.5 -47z" />
    <glyph glyph-name="ij" unicode="&#x133;" horiz-adv-x="482" 
d="M122 738q21 0 35 -14t14 -43q0 -28 -14 -42t-35 -14q-22 0 -36.5 14t-14.5 42q0 29 14 43t37 14zM163 536v-536h-85v536h85zM312 681q0 29 14 43t37 14q21 0 35 -14t14 -43q0 -28 -14 -42t-35 -14q-22 0 -36.5 14t-14.5 42zM268 -240q-21 0 -37.5 3t-29.5 8v71
q13 -4 26.5 -6.5t28.5 -2.5q29 0 46 18.5t17 65.5v619h85v-617q0 -77 -33 -118t-103 -41z" />
    <glyph glyph-name="Jcircumflex" unicode="&#x134;" horiz-adv-x="255" 
d="M3 -191q-42 0 -70 12v76q14 -5 30.5 -7.5t35.5 -2.5q36 0 60.5 25t24.5 93v709h88v-707q0 -104 -45.5 -151t-123.5 -47zM170 944q11 -22 31 -49.5t42 -53.5t40 -46v-11h-56q-24 17 -49.5 41t-50.5 50q-26 -26 -51 -50t-48 -41h-55v11q18 21 39.5 47.5t41 53t31.5 48.5h85
z" />
    <glyph glyph-name="jcircumflex" unicode="&#x135;" horiz-adv-x="241" 
d="M27 -240q-21 0 -38 3t-29 8v71q13 -4 26.5 -6.5t28.5 -2.5q29 0 46 18.5t17 64.5v620h85v-617q0 -76 -33 -117.5t-103 -41.5zM162 766q11 -22 31 -49.5t42 -53.5t40 -46v-11h-56q-24 17 -49.5 41t-50.5 50q-26 -26 -51 -50t-48 -41h-55v11q18 21 39.5 47.5t41 53
t31.5 48.5h85z" />
    <glyph glyph-name="uni0136" unicode="&#x136;" horiz-adv-x="556" 
d="M557 0h-101l-215 337l-65 -63v-274h-88v714h88v-354q21 26 46 57t52 67l173 230h100l-244 -313zM363 -70q-5 -21 -17 -48t-27 -54.5t-32 -48.5h-47v12q7 17 15 44t14 55t9 49h85v-9z" />
    <glyph glyph-name="uni0137" unicode="&#x137;" horiz-adv-x="485" 
d="M162 370q0 -20 -1.5 -46t-2.5 -48h4q9 14 25 36t28 37l152 187h98l-186 -221l198 -315h-99l-157 256l-59 -58v-198h-84v760h84v-390zM309 -70q-5 -21 -17 -48t-27 -54.5t-32 -48.5h-47v12q7 17 15 44t14 55t9 49h85v-9z" />
    <glyph glyph-name="kgreenlandic" unicode="&#x138;" horiz-adv-x="485" 
d="M464 536l-176 -226l189 -310h-98l-151 250l-62 -58v-192h-88v536h88v-144q0 -36 -1.5 -70t-3.5 -55h2l18 26t17 25l167 218h99z" />
    <glyph glyph-name="Lacute" unicode="&#x139;" horiz-adv-x="468" 
d="M88 0v714h88v-635h270v-79h-358zM273 934q-13 -19 -37.5 -47.5t-52.5 -56.5t-50 -46h-56v12q24 32 50 73t43 75h103v-10z" />
    <glyph glyph-name="lacute" unicode="&#x13a;" horiz-adv-x="240" 
d="M163 0h-85v760h85v-760zM262 980q-13 -19 -37.5 -47.5t-52.5 -56.5t-50 -46h-56v12q24 32 50 73t43 75h103v-10z" />
    <glyph glyph-name="uni013B" unicode="&#x13b;" horiz-adv-x="468" 
d="M88 0v714h88v-635h270v-79h-358zM331 -70q-5 -21 -17 -48t-27 -54.5t-32 -48.5h-47v12q7 17 15 44t14 55t9 49h85v-9z" />
    <glyph glyph-name="uni013C" unicode="&#x13c;" horiz-adv-x="240" 
d="M163 0h-85v760h85v-760zM182 -70q-5 -21 -17 -48t-27 -54.5t-32 -48.5h-47v12q7 17 15 44t14 55t9 49h85v-9z" />
    <glyph glyph-name="Lcaron" unicode="&#x13d;" horiz-adv-x="468" 
d="M454 705q-5 -20 -16 -47.5t-25 -55.5t-28 -48h-47v12q5 16 11.5 43.5t11.5 56.5t6 48h87v-9zM88 0v714h88v-635h270v-79h-358z" />
    <glyph glyph-name="lcaron" unicode="&#x13e;" horiz-adv-x="240" 
d="M320 751q-4 -20 -15.5 -47.5t-25.5 -55.5t-27 -48h-47v12q5 16 11 43.5t11 56.5t7 48h86v-9zM163 0h-85v760h85v-760z" />
    <glyph glyph-name="Ldot" unicode="&#x13f;" horiz-adv-x="468" 
d="M88 0v714h88v-635h270v-79h-358zM352 426q21 0 35 -14t14 -43q0 -28 -14 -42t-35 -14q-22 0 -36.5 14t-14.5 42q0 29 14 43t37 14z" />
    <glyph glyph-name="ldot" unicode="&#x140;" horiz-adv-x="269" 
d="M163 0h-85v760h85v-760zM256 444q21 0 35 -14t14 -43q0 -28 -14 -42t-35 -14q-22 0 -36.5 14t-14.5 42q0 29 14 43t37 14z" />
    <glyph glyph-name="Lslash" unicode="&#x141;" horiz-adv-x="471" 
d="M90 0v246l-47 -29l-37 58l84 53v386h88v-332l127 77l37 -60l-164 -99v-221h270v-79h-358z" />
    <glyph glyph-name="lslash" unicode="&#x142;" horiz-adv-x="247" 
d="M76 0v290l-52 -35l-37 57l89 62v386h86v-329l60 43l39 -57l-99 -69v-348h-86z" />
    <glyph glyph-name="Nacute" unicode="&#x143;" horiz-adv-x="690" 
d="M602 0h-104l-331 589h-4q2 -37 4.5 -83.5t2.5 -92.5v-413h-82v714h103l331 -584h4q-2 31 -4 81t-2 91v412h82v-714zM487 934q-13 -19 -37.5 -47.5t-52.5 -56.5t-50 -46h-56v12q24 32 50 73t43 75h103v-10z" />
    <glyph glyph-name="nacute" unicode="&#x144;" horiz-adv-x="559" 
d="M313 546q85 0 128 -46t43 -145v-355h-85v345q0 128 -101 128q-75 0 -105 -48.5t-30 -146.5v-278h-85v536h68l12 -73h5q23 42 63.5 62.5t86.5 20.5zM424 756q-13 -19 -37.5 -47.5t-52.5 -56.5t-50 -46h-56v12q24 32 50 73t43 75h103v-10z" />
    <glyph glyph-name="uni0145" unicode="&#x145;" horiz-adv-x="690" 
d="M602 0h-104l-331 589h-4q2 -37 4.5 -83.5t2.5 -92.5v-413h-82v714h103l331 -584h4q-2 31 -4 81t-2 91v412h82v-714zM406 -70q-5 -21 -17 -48t-27 -54.5t-32 -48.5h-47v12q7 17 15 44t14 55t9 49h85v-9z" />
    <glyph glyph-name="uni0146" unicode="&#x146;" horiz-adv-x="559" 
d="M313 546q85 0 128 -46t43 -145v-355h-85v345q0 128 -101 128q-75 0 -105 -48.5t-30 -146.5v-278h-85v536h68l12 -73h5q23 42 63.5 62.5t86.5 20.5zM341 -70q-5 -21 -17 -48t-27 -54.5t-32 -48.5h-47v12q7 17 15 44t14 55t9 49h85v-9z" />
    <glyph glyph-name="Ncaron" unicode="&#x147;" horiz-adv-x="690" 
d="M602 0h-104l-331 589h-4q2 -37 4.5 -83.5t2.5 -92.5v-413h-82v714h103l331 -584h4q-2 31 -4 81t-2 91v412h82v-714zM302 784q-12 22 -31.5 48.5t-41 52.5t-39.5 47v12h55q23 -17 49 -41.5t50 -51.5q26 28 50 50t50 43h56v-12q-17 -19 -39.5 -45t-42.5 -53t-31 -50h-85z
" />
    <glyph glyph-name="ncaron" unicode="&#x148;" horiz-adv-x="559" 
d="M313 546q85 0 128 -46t43 -145v-355h-85v345q0 128 -101 128q-75 0 -105 -48.5t-30 -146.5v-278h-85v536h68l12 -73h5q23 42 63.5 62.5t86.5 20.5zM239 606q-12 22 -31.5 48.5t-41 52.5t-39.5 47v12h55q23 -17 49 -41.5t50 -51.5q26 28 50 50t50 43h56v-12
q-17 -19 -39.5 -45t-42.5 -53t-31 -50h-85z" />
    <glyph glyph-name="napostrophe" unicode="&#x149;" horiz-adv-x="628" 
d="M382 546q85 0 128 -46t43 -145v-355h-85v345q0 128 -101 128q-75 0 -105 -48.5t-30 -146.5v-278h-85v536h68l12 -73h5q23 42 63.5 62.5t86.5 20.5zM147 703q-14 -56 -36 -118t-46 -116h-64q15 57 28.5 125t19.5 120h91z" />
    <glyph glyph-name="Eng" unicode="&#x14a;" horiz-adv-x="690" 
d="M434 -191q-44 0 -72 12v76q14 -5 31.5 -7.5t37.5 -2.5q36 0 62 24.5t27 88.5l-354 592h-3q2 -34 4.5 -86t2.5 -98v-408h-82v714h103l331 -559h4q-3 36 -4.5 84.5t-1.5 94.5v380h82v-709q0 -100 -44.5 -148t-123.5 -48z" />
    <glyph glyph-name="eng" unicode="&#x14b;" horiz-adv-x="559" 
d="M353 -240q-20 0 -35 3t-27 8v71q12 -4 24 -6.5t27 -2.5q25 0 41 18.5t16 65.5v428q0 127 -101 127q-75 0 -105 -47.5t-30 -145.5v-279h-85v536h68l13 -73h4q23 41 63 62t87 21q89 0 130.5 -49t41.5 -147v-431q0 -74 -32 -116.5t-100 -42.5z" />
    <glyph glyph-name="Omacron" unicode="&#x14c;" horiz-adv-x="696" 
d="M640 358q0 -108 -32 -191t-96.5 -130t-162.5 -47q-101 0 -165.5 47.5t-95.5 131t-31 190.5q0 171 72.5 268.5t219.5 97.5q98 0 162.5 -47t96.5 -129.5t32 -190.5zM149 358q0 -138 49 -214t150 -76q102 0 150.5 75.5t48.5 214.5t-48 214t-150 75t-151 -75.5t-49 -213.5z
M486 855v-68h-277v68h277z" />
    <glyph glyph-name="omacron" unicode="&#x14d;" horiz-adv-x="546" 
d="M497 269q0 -130 -59 -204.5t-166 -74.5q-67 0 -117 33.5t-77.5 96t-27.5 149.5q0 133 58.5 205t165.5 72q101 0 162 -71.5t61 -205.5zM138 269q0 -98 32.5 -152.5t103.5 -54.5q69 0 102 54t33 153q0 98 -33 151t-103 53q-71 0 -103 -53t-32 -151zM411 677v-68h-277v68
h277z" />
    <glyph glyph-name="Obreve" unicode="&#x14e;" horiz-adv-x="696" 
d="M640 358q0 -108 -32 -191t-96.5 -130t-162.5 -47q-101 0 -165.5 47.5t-95.5 131t-31 190.5q0 171 72.5 268.5t219.5 97.5q98 0 162.5 -47t96.5 -129.5t32 -190.5zM149 358q0 -138 49 -214t150 -76q102 0 150.5 75.5t48.5 214.5t-48 214t-150 75t-151 -75.5t-49 -213.5z
M491 918q-3 -60 -41 -97t-104 -37q-67 0 -102.5 35.5t-38.5 98.5h54q4 -39 26.5 -52.5t62.5 -13.5q36 0 60.5 14t29.5 52h53z" />
    <glyph glyph-name="obreve" unicode="&#x14f;" horiz-adv-x="546" 
d="M497 269q0 -130 -59 -204.5t-166 -74.5q-67 0 -117 33.5t-77.5 96t-27.5 149.5q0 133 58.5 205t165.5 72q101 0 162 -71.5t61 -205.5zM138 269q0 -98 32.5 -152.5t103.5 -54.5q69 0 102 54t33 153q0 98 -33 151t-103 53q-71 0 -103 -53t-32 -151zM416 740q-3 -60 -41 -97
t-104 -37q-67 0 -102.5 35.5t-38.5 98.5h54q4 -39 26.5 -52.5t62.5 -13.5q36 0 60.5 14t29.5 52h53z" />
    <glyph glyph-name="Ohungarumlaut" unicode="&#x150;" horiz-adv-x="696" 
d="M640 358q0 -108 -32 -191t-96.5 -130t-162.5 -47q-101 0 -165.5 47.5t-95.5 131t-31 190.5q0 171 72.5 268.5t219.5 97.5q98 0 162.5 -47t96.5 -129.5t32 -190.5zM149 358q0 -138 49 -214t150 -76q102 0 150.5 75.5t48.5 214.5t-48 214t-150 75t-151 -75.5t-49 -213.5z
M518 934q-11 -19 -33.5 -47.5t-48.5 -56.5t-47 -46h-47v12q14 20 30.5 47t30.5 54t23 47h92v-10zM354 934q-11 -19 -33 -47t-48 -56t-49 -47h-46v12q14 20 30 47t30.5 54t23.5 47h92v-10z" />
    <glyph glyph-name="ohungarumlaut" unicode="&#x151;" horiz-adv-x="546" 
d="M497 269q0 -130 -59 -204.5t-166 -74.5q-67 0 -117 33.5t-77.5 96t-27.5 149.5q0 133 58.5 205t165.5 72q101 0 162 -71.5t61 -205.5zM138 269q0 -98 32.5 -152.5t103.5 -54.5q69 0 102 54t33 153q0 98 -33 151t-103 53q-71 0 -103 -53t-32 -151zM443 756
q-11 -19 -33.5 -47.5t-48.5 -56.5t-47 -46h-47v12q14 20 30.5 47t30.5 54t23 47h92v-10zM279 756q-11 -19 -33 -47t-48 -56t-49 -47h-46v12q14 20 30 47t30.5 54t23.5 47h92v-10z" />
    <glyph glyph-name="OE" unicode="&#x152;" horiz-adv-x="825" 
d="M352 723q43 0 83 -9h335v-78h-255v-225h239v-77h-239v-256h255v-78h-331q-20 -3 -41 -5.5t-44 -2.5q-100 0 -166 45t-98.5 127t-32.5 195q0 112 32.5 193.5t98 126t164.5 44.5zM357 645q-111 -1 -159.5 -77.5t-48.5 -209.5t48.5 -210.5t159.5 -78.5q41 0 71 12v552
q-29 12 -71 12z" />
    <glyph glyph-name="oe" unicode="&#x153;" horiz-adv-x="854" 
d="M610 545q63 0 106.5 -30.5t66.5 -84.5t23 -124v-54h-319q2 -97 39 -143.5t107 -46.5q44 0 79 9.5t71 27.5v-74q-36 -18 -71.5 -26.5t-81.5 -8.5q-127 0 -184 106q-56 -106 -177 -106q-99 0 -159 73t-60 206t57.5 205t163.5 72q118 0 172 -105q54 104 167 104zM608 475
q-109 0 -119 -155h230q0 68 -26.5 111.5t-84.5 43.5zM269 473q-69 0 -100 -51t-31 -153t32 -154.5t100 -52.5t99 51t31 153q0 104 -31.5 155.5t-99.5 51.5z" />
    <glyph glyph-name="Racute" unicode="&#x154;" horiz-adv-x="563" 
d="M259 714q125 0 184 -50.5t59 -151.5q0 -80 -37.5 -125t-92.5 -67l177 -320h-101l-156 296h-116v-296h-88v714h171zM256 637h-80v-267h87q149 0 149 138q0 69 -38 99t-118 30zM424 934q-13 -19 -37.5 -47.5t-52.5 -56.5t-50 -46h-56v12q24 32 50 73t43 75h103v-10z" />
    <glyph glyph-name="racute" unicode="&#x155;" horiz-adv-x="373" 
d="M303 546q14 0 29 -1.5t28 -4.5l-11 -82q-24 7 -52 7q-36 0 -66.5 -23t-49 -64t-18.5 -94v-284h-85v536h68l11 -95h4q23 45 58.5 75t83.5 30zM358 756q-13 -19 -37.5 -47.5t-52.5 -56.5t-50 -46h-56v12q24 32 50 73t43 75h103v-10z" />
    <glyph glyph-name="uni0156" unicode="&#x156;" horiz-adv-x="563" 
d="M259 714q125 0 184 -50.5t59 -151.5q0 -80 -37.5 -125t-92.5 -67l177 -320h-101l-156 296h-116v-296h-88v714h171zM256 637h-80v-267h87q149 0 149 138q0 69 -38 99t-118 30zM358 -70q-5 -21 -17 -48t-27 -54.5t-32 -48.5h-47v12q7 17 15 44t14 55t9 49h85v-9z" />
    <glyph glyph-name="uni0157" unicode="&#x157;" horiz-adv-x="373" 
d="M303 546q14 0 29 -1.5t28 -4.5l-11 -82q-24 7 -52 7q-36 0 -66.5 -23t-49 -64t-18.5 -94v-284h-85v536h68l11 -95h4q23 45 58.5 75t83.5 30zM182 -70q-5 -21 -17 -48t-27 -54.5t-32 -48.5h-47v12q7 17 15 44t14 55t9 49h85v-9z" />
    <glyph glyph-name="Rcaron" unicode="&#x158;" horiz-adv-x="563" 
d="M259 714q125 0 184 -50.5t59 -151.5q0 -80 -37.5 -125t-92.5 -67l177 -320h-101l-156 296h-116v-296h-88v714h171zM256 637h-80v-267h87q149 0 149 138q0 69 -38 99t-118 30zM239 784q-12 22 -31.5 48.5t-41 52.5t-39.5 47v12h55q23 -17 49 -41.5t50 -51.5q26 28 50 50
t50 43h56v-12q-17 -19 -39.5 -45t-42.5 -53t-31 -50h-85z" />
    <glyph glyph-name="rcaron" unicode="&#x159;" horiz-adv-x="373" 
d="M303 546q14 0 29 -1.5t28 -4.5l-11 -82q-24 7 -52 7q-36 0 -66.5 -23t-49 -64t-18.5 -94v-284h-85v536h68l11 -95h4q23 45 58.5 75t83.5 30zM173 606q-12 22 -31.5 48.5t-41 52.5t-39.5 47v12h55q23 -17 49 -41.5t50 -51.5q26 28 50 50t50 43h56v-12q-17 -19 -39.5 -45
t-42.5 -53t-31 -50h-85z" />
    <glyph glyph-name="Sacute" unicode="&#x15a;" horiz-adv-x="499" 
d="M455 193q0 -94 -62.5 -148.5t-167.5 -54.5q-54 0 -100 8.5t-79 24.5v86q35 -17 83.5 -29t96.5 -12q69 0 105 32.5t36 84.5q0 35 -13.5 59t-45.5 44t-87 43q-82 33 -124.5 79t-42.5 130q-1 56 26 97.5t75 64t110 22.5q52 0 97 -11t80 -27l-27 -77q-35 16 -73 26t-78 10
q-59 0 -90 -29t-31 -75q0 -37 13 -60.5t43.5 -43t82.5 -40.5q85 -36 129 -81t44 -123zM402 934q-13 -19 -37.5 -47.5t-52.5 -56.5t-50 -46h-56v12q24 32 50 73t43 75h103v-10z" />
    <glyph glyph-name="sacute" unicode="&#x15b;" horiz-adv-x="428" 
d="M387 147q0 -77 -51 -117t-140 -40q-49 0 -86 8.5t-65 24.5v81q28 -17 68.5 -29.5t82.5 -12.5q56 0 82 21t26 57q0 31 -23.5 53t-89.5 50q-46 20 -78.5 41t-50.5 49.5t-18 71.5q0 66 50.5 103.5t132.5 37.5q43 0 81 -9t72 -26l-30 -68q-29 14 -61 23t-66 9
q-46 0 -71.5 -18t-25.5 -48q0 -34 26.5 -53.5t92.5 -48.5q44 -20 76 -40.5t49 -49t17 -70.5zM360 756q-13 -19 -37.5 -47.5t-52.5 -56.5t-50 -46h-56v12q24 32 50 73t43 75h103v-10z" />
    <glyph glyph-name="Scircumflex" unicode="&#x15c;" horiz-adv-x="499" 
d="M455 193q0 -94 -62.5 -148.5t-167.5 -54.5q-54 0 -100 8.5t-79 24.5v86q35 -17 83.5 -29t96.5 -12q69 0 105 32.5t36 84.5q0 35 -13.5 59t-45.5 44t-87 43q-82 33 -124.5 79t-42.5 130q-1 56 26 97.5t75 64t110 22.5q52 0 97 -11t80 -27l-27 -77q-35 16 -73 26t-78 10
q-59 0 -90 -29t-31 -75q0 -37 13 -60.5t43.5 -43t82.5 -40.5q85 -36 129 -81t44 -123zM302 944q11 -22 31 -49.5t42 -53.5t40 -46v-11h-56q-24 17 -49.5 41t-50.5 50q-26 -26 -51 -50t-48 -41h-55v11q18 21 39.5 47.5t41 53t31.5 48.5h85z" />
    <glyph glyph-name="scircumflex" unicode="&#x15d;" horiz-adv-x="428" 
d="M387 147q0 -77 -51 -117t-140 -40q-49 0 -86 8.5t-65 24.5v81q28 -17 68.5 -29.5t82.5 -12.5q56 0 82 21t26 57q0 31 -23.5 53t-89.5 50q-46 20 -78.5 41t-50.5 49.5t-18 71.5q0 66 50.5 103.5t132.5 37.5q43 0 81 -9t72 -26l-30 -68q-29 14 -61 23t-66 9
q-46 0 -71.5 -18t-25.5 -48q0 -34 26.5 -53.5t92.5 -48.5q44 -20 76 -40.5t49 -49t17 -70.5zM260 766q11 -22 31 -49.5t42 -53.5t40 -46v-11h-56q-24 17 -49.5 41t-50.5 50q-26 -26 -51 -50t-48 -41h-55v11q18 21 39.5 47.5t41 53t31.5 48.5h85z" />
    <glyph glyph-name="Scedilla" unicode="&#x15e;" horiz-adv-x="499" 
d="M455 193q0 -94 -62.5 -148.5t-167.5 -54.5q-54 0 -100 8.5t-79 24.5v86q35 -17 83.5 -29t96.5 -12q69 0 105 32.5t36 84.5q0 35 -13.5 59t-45.5 44t-87 43q-82 33 -124.5 79t-42.5 130q-1 56 26 97.5t75 64t110 22.5q52 0 97 -11t80 -27l-27 -77q-35 16 -73 26t-78 10
q-59 0 -90 -29t-31 -75q0 -37 13 -60.5t43.5 -43t82.5 -40.5q85 -36 129 -81t44 -123zM329 -138q0 -49 -35 -75.5t-102 -26.5q-34 0 -52 5v55q19 -5 49 -5q70 0 70 45q0 27 -24 39t-62 18l40 83h55l-25 -52q38 -8 62 -29t24 -57z" />
    <glyph glyph-name="scedilla" unicode="&#x15f;" horiz-adv-x="428" 
d="M387 147q0 -77 -51 -117t-140 -40q-49 0 -86 8.5t-65 24.5v81q28 -17 68.5 -29.5t82.5 -12.5q56 0 82 21t26 57q0 31 -23.5 53t-89.5 50q-46 20 -78.5 41t-50.5 49.5t-18 71.5q0 66 50.5 103.5t132.5 37.5q43 0 81 -9t72 -26l-30 -68q-29 14 -61 23t-66 9
q-46 0 -71.5 -18t-25.5 -48q0 -34 26.5 -53.5t92.5 -48.5q44 -20 76 -40.5t49 -49t17 -70.5zM305 -138q0 -49 -35 -75.5t-102 -26.5q-34 0 -52 5v55q19 -5 49 -5q70 0 70 45q0 27 -24 39t-62 18l40 83h55l-25 -52q38 -8 62 -29t24 -57z" />
    <glyph glyph-name="Scaron" unicode="&#x160;" horiz-adv-x="499" 
d="M455 193q0 -94 -62.5 -148.5t-167.5 -54.5q-54 0 -100 8.5t-79 24.5v86q35 -17 83.5 -29t96.5 -12q69 0 105 32.5t36 84.5q0 35 -13.5 59t-45.5 44t-87 43q-82 33 -124.5 79t-42.5 130q-1 56 26 97.5t75 64t110 22.5q52 0 97 -11t80 -27l-27 -77q-35 16 -73 26t-78 10
q-59 0 -90 -29t-31 -75q0 -37 13 -60.5t43.5 -43t82.5 -40.5q85 -36 129 -81t44 -123zM217 784q-12 22 -31.5 48.5t-41 52.5t-39.5 47v12h55q23 -17 49 -41.5t50 -51.5q26 28 50 50t50 43h56v-12q-17 -19 -39.5 -45t-42.5 -53t-31 -50h-85z" />
    <glyph glyph-name="scaron" unicode="&#x161;" horiz-adv-x="428" 
d="M387 147q0 -77 -51 -117t-140 -40q-49 0 -86 8.5t-65 24.5v81q28 -17 68.5 -29.5t82.5 -12.5q56 0 82 21t26 57q0 31 -23.5 53t-89.5 50q-46 20 -78.5 41t-50.5 49.5t-18 71.5q0 66 50.5 103.5t132.5 37.5q43 0 81 -9t72 -26l-30 -68q-29 14 -61 23t-66 9
q-46 0 -71.5 -18t-25.5 -48q0 -34 26.5 -53.5t92.5 -48.5q44 -20 76 -40.5t49 -49t17 -70.5zM175 606q-12 22 -31.5 48.5t-41 52.5t-39.5 47v12h55q23 -17 49 -41.5t50 -51.5q26 28 50 50t50 43h56v-12q-17 -19 -39.5 -45t-42.5 -53t-31 -50h-85z" />
    <glyph glyph-name="uni0162" unicode="&#x162;" horiz-adv-x="492" 
d="M290 0h-88v636h-192v78h471v-78h-191v-636zM341 -138q0 -49 -35 -75.5t-102 -26.5q-34 0 -52 5v55q19 -5 49 -5q70 0 70 45q0 27 -24 39t-62 18l40 83h55l-25 -52q38 -8 62 -29t24 -57z" />
    <glyph glyph-name="uni0163" unicode="&#x163;" horiz-adv-x="324" 
d="M239 62q17 0 35 3t31 8v-67q-34 -16 -85 -16q-59 0 -98 34.5t-39 123.5v320h-67v43l69 30l30 118h53v-123h131v-68h-131v-315q0 -91 71 -91zM289 -138q0 -49 -35 -75.5t-102 -26.5q-34 0 -52 5v55q19 -5 49 -5q70 0 70 45q0 27 -24 39t-62 18l40 83h55l-25 -52
q38 -8 62 -29t24 -57z" />
    <glyph glyph-name="Tcaron" unicode="&#x164;" horiz-adv-x="492" 
d="M290 0h-88v636h-192v78h471v-78h-191v-636zM203 784q-12 22 -31.5 48.5t-41 52.5t-39.5 47v12h55q23 -17 49 -41.5t50 -51.5q26 28 50 50t50 43h56v-12q-17 -19 -39.5 -45t-42.5 -53t-31 -50h-85z" />
    <glyph glyph-name="tcaron" unicode="&#x165;" horiz-adv-x="324" 
d="M430 751q-4 -20 -15 -47.5t-25 -55.5t-28 -48h-47v12q5 16 11 43.5t11 56.5t7 48h86v-9zM239 62q17 0 35 3t31 8v-67q-34 -16 -85 -16q-59 0 -98 34.5t-39 123.5v320h-67v43l69 30l30 118h53v-123h131v-68h-131v-315q0 -91 71 -91z" />
    <glyph glyph-name="Tbar" unicode="&#x166;" horiz-adv-x="492" 
d="M201 0v325h-131v72h131v238h-191v79h471v-79h-192v-238h131v-72h-131v-325h-88z" />
    <glyph glyph-name="tbar" unicode="&#x167;" horiz-adv-x="324" 
d="M239 62q17 0 35 3t31 8v-67q-34 -16 -85 -16q-59 0 -98 34.5t-39 123.5v129h-61v65h61v126h-67v43l69 30l30 118h53v-123h131v-68h-131v-126h124v-65h-124v-124q0 -91 71 -91z" />
    <glyph glyph-name="Utilde" unicode="&#x168;" horiz-adv-x="654" 
d="M572 242q0 -115 -61 -183.5t-186 -68.5q-119 0 -181 66.5t-62 186.5v471h87v-474q0 -172 160 -172q81 0 118.5 45.5t37.5 127.5v473h87v-472zM158 784q5 54 30 89.5t70 35.5q28 0 53 -14t47.5 -28.5t42.5 -14.5t30.5 15t17.5 43h50q-5 -58 -31 -91.5t-68 -33.5
q-27 0 -52 14t-48 28.5t-43 14.5t-31 -15t-17 -43h-51z" />
    <glyph glyph-name="utilde" unicode="&#x169;" horiz-adv-x="559" 
d="M481 536v-536h-69l-12 71h-5q-23 -41 -63 -61t-87 -20q-88 0 -130 49t-42 147v350h86v-341q0 -132 100 -132q77 0 107 48.5t30 143.5v281h85zM110 606q5 54 30 89.5t70 35.5q28 0 53 -14t47.5 -28.5t42.5 -14.5t30.5 15t17.5 43h50q-5 -58 -31 -91.5t-68 -33.5
q-27 0 -52 14t-48 28.5t-43 14.5t-31 -15t-17 -43h-51z" />
    <glyph glyph-name="Umacron" unicode="&#x16a;" horiz-adv-x="654" 
d="M572 242q0 -115 -61 -183.5t-186 -68.5q-119 0 -181 66.5t-62 186.5v471h87v-474q0 -172 160 -172q81 0 118.5 45.5t37.5 127.5v473h87v-472zM465 855v-68h-277v68h277z" />
    <glyph glyph-name="umacron" unicode="&#x16b;" horiz-adv-x="559" 
d="M481 536v-536h-69l-12 71h-5q-23 -41 -63 -61t-87 -20q-88 0 -130 49t-42 147v350h86v-341q0 -132 100 -132q77 0 107 48.5t30 143.5v281h85zM418 677v-68h-277v68h277z" />
    <glyph glyph-name="Ubreve" unicode="&#x16c;" horiz-adv-x="654" 
d="M572 242q0 -115 -61 -183.5t-186 -68.5q-119 0 -181 66.5t-62 186.5v471h87v-474q0 -172 160 -172q81 0 118.5 45.5t37.5 127.5v473h87v-472zM470 918q-3 -60 -41 -97t-104 -37q-67 0 -102.5 35.5t-38.5 98.5h54q4 -39 26.5 -52.5t62.5 -13.5q36 0 60.5 14t29.5 52h53z
" />
    <glyph glyph-name="ubreve" unicode="&#x16d;" horiz-adv-x="559" 
d="M481 536v-536h-69l-12 71h-5q-23 -41 -63 -61t-87 -20q-88 0 -130 49t-42 147v350h86v-341q0 -132 100 -132q77 0 107 48.5t30 143.5v281h85zM422 740q-3 -60 -41 -97t-104 -37q-67 0 -102.5 35.5t-38.5 98.5h54q4 -39 26.5 -52.5t62.5 -13.5q36 0 60.5 14t29.5 52h53z
" />
    <glyph glyph-name="Uring" unicode="&#x16e;" horiz-adv-x="654" 
d="M572 242q0 -115 -61 -183.5t-186 -68.5q-119 0 -181 66.5t-62 186.5v471h87v-474q0 -172 160 -172q81 0 118.5 45.5t37.5 127.5v473h87v-472zM327 785q-49 0 -78.5 28t-29.5 76t29.5 75.5t78.5 27.5q46 0 77 -27t31 -75q0 -49 -30 -77t-78 -28zM327 835q24 0 39.5 14.5
t15.5 39.5t-15.5 40t-39.5 15t-39.5 -15t-15.5 -40t14 -39.5t41 -14.5z" />
    <glyph glyph-name="uring" unicode="&#x16f;" horiz-adv-x="559" 
d="M481 536v-536h-69l-12 71h-5q-23 -41 -63 -61t-87 -20q-88 0 -130 49t-42 147v350h86v-341q0 -132 100 -132q77 0 107 48.5t30 143.5v281h85zM279 607q-49 0 -78.5 28t-29.5 76t29.5 75.5t78.5 27.5q46 0 77 -27t31 -75q0 -49 -30 -77t-78 -28zM279 657q24 0 39.5 14.5
t15.5 39.5t-15.5 40t-39.5 15t-39.5 -15t-15.5 -40t14 -39.5t41 -14.5z" />
    <glyph glyph-name="Uhungarumlaut" unicode="&#x170;" horiz-adv-x="654" 
d="M572 242q0 -115 -61 -183.5t-186 -68.5q-119 0 -181 66.5t-62 186.5v471h87v-474q0 -172 160 -172q81 0 118.5 45.5t37.5 127.5v473h87v-472zM497 934q-11 -19 -33.5 -47.5t-48.5 -56.5t-47 -46h-47v12q14 20 30.5 47t30.5 54t23 47h92v-10zM333 934q-11 -19 -33 -47
t-48 -56t-49 -47h-46v12q14 20 30 47t30.5 54t23.5 47h92v-10z" />
    <glyph glyph-name="uhungarumlaut" unicode="&#x171;" horiz-adv-x="559" 
d="M481 536v-536h-69l-12 71h-5q-23 -41 -63 -61t-87 -20q-88 0 -130 49t-42 147v350h86v-341q0 -132 100 -132q77 0 107 48.5t30 143.5v281h85zM449 756q-11 -19 -33.5 -47.5t-48.5 -56.5t-47 -46h-47v12q14 20 30.5 47t30.5 54t23 47h92v-10zM285 756q-11 -19 -33 -47
t-48 -56t-49 -47h-46v12q14 20 30 47t30.5 54t23.5 47h92v-10z" />
    <glyph glyph-name="Uogonek" unicode="&#x172;" horiz-adv-x="654" 
d="M406 -111q0 -27 12 -39t33 -12q14 0 24.5 2t18.5 4v-57q-13 -4 -27 -6t-31 -2q-100 0 -100 99q0 32 17 63t40 55q-32 -6 -68 -6q-119 0 -181 66.5t-62 186.5v471h87v-474q0 -172 160 -172q81 0 118.5 45.5t37.5 127.5v473h87v-472q0 -67 -20.5 -119t-62.5 -84
q-45 -51 -64 -84.5t-19 -65.5z" />
    <glyph glyph-name="uogonek" unicode="&#x173;" horiz-adv-x="559" 
d="M481 536v-536h-69l-12 71h-5q-23 -41 -63 -61t-87 -20q-88 0 -130 49t-42 147v350h86v-341q0 -132 100 -132q77 0 107 48.5t30 143.5v281h85zM402 -116q0 -47 45 -47q15 0 25 2t17 4v-56q-12 -4 -25.5 -6t-31.5 -2q-51 0 -75.5 24t-24.5 69q0 41 27.5 79t60.5 63l47 -14
q-34 -33 -49.5 -59.5t-15.5 -56.5z" />
    <glyph glyph-name="Wcircumflex" unicode="&#x174;" horiz-adv-x="853" 
d="M843 714l-174 -714h-94l-121 463q-9 34 -17.5 74t-12.5 67q-3 -21 -10.5 -61t-18.5 -81l-118 -462h-94l-174 714h91l102 -437q22 -98 31 -173q6 41 15 87t20 89l113 434h87l115 -436q12 -44 21 -88.5t14 -85.5q5 41 13.5 85.5t19.5 88.5l102 436h90zM468 944
q11 -22 31 -49.5t42 -53.5t40 -46v-11h-56q-24 17 -49.5 41t-50.5 50q-26 -26 -51 -50t-48 -41h-55v11q18 21 39.5 47.5t41 53t31.5 48.5h85z" />
    <glyph glyph-name="wcircumflex" unicode="&#x175;" horiz-adv-x="720" 
d="M391 311q-10 37 -18 73t-12 60h-3q-4 -25 -12 -61t-18 -73l-85 -309h-97l-136 536h88l66 -279q10 -43 19 -87t14 -77h3q5 28 14 71t19 81l81 291h94l78 -291q9 -32 18.5 -73t14.5 -79h3q3 23 11 62t18 81l72 300h86l-137 -536h-100zM402 766q11 -22 31 -49.5t42 -53.5
t40 -46v-11h-56q-24 17 -49.5 41t-50.5 50q-26 -26 -51 -50t-48 -41h-55v11q18 21 39.5 47.5t41 53t31.5 48.5h85z" />
    <glyph glyph-name="Ycircumflex" unicode="&#x176;" horiz-adv-x="502" 
d="M251 369l158 345h93l-207 -437v-277h-88v274l-207 440h94zM293 944q11 -22 31 -49.5t42 -53.5t40 -46v-11h-56q-24 17 -49.5 41t-50.5 50q-26 -26 -51 -50t-48 -41h-55v11q18 21 39.5 47.5t41 53t31.5 48.5h85z" />
    <glyph glyph-name="ycircumflex" unicode="&#x177;" horiz-adv-x="459" 
d="M2 536h90l101 -304q11 -36 21 -70.5t16 -66.5h4q5 25 15 62t23 75l95 304h90l-204 -613q-26 -78 -66.5 -120.5t-109.5 -42.5q-20 0 -36 2.5t-29 5.5v71q10 -3 24 -5t28 -2q39 0 63 24.5t40 73.5l24 70zM271 766q11 -22 31 -49.5t42 -53.5t40 -46v-11h-56q-24 17 -49.5 41
t-50.5 50q-26 -26 -51 -50t-48 -41h-55v11q18 21 39.5 47.5t41 53t31.5 48.5h85z" />
    <glyph glyph-name="Ydieresis" unicode="&#x178;" horiz-adv-x="502" 
d="M251 369l158 345h93l-207 -437v-277h-88v274l-207 440h94zM117 854q0 26 13 38t32 12t32 -12t13 -38t-13 -38t-32 -12t-32 12t-13 38zM295 854q0 26 13.5 38t31.5 12q19 0 32.5 -12t13.5 -38t-13.5 -38t-32.5 -12q-18 0 -31.5 12t-13.5 38z" />
    <glyph glyph-name="Zacute" unicode="&#x179;" horiz-adv-x="495" 
d="M463 0h-429v67l318 568h-309v79h411v-67l-319 -568h328v-79zM392 934q-13 -19 -37.5 -47.5t-52.5 -56.5t-50 -46h-56v12q24 32 50 73t43 75h103v-10z" />
    <glyph glyph-name="zacute" unicode="&#x17a;" horiz-adv-x="409" 
d="M376 0h-342v57l241 411h-227v68h321v-63l-238 -405h245v-68zM349 756q-13 -19 -37.5 -47.5t-52.5 -56.5t-50 -46h-56v12q24 32 50 73t43 75h103v-10z" />
    <glyph glyph-name="Zdotaccent" unicode="&#x17b;" horiz-adv-x="495" 
d="M463 0h-429v67l318 568h-309v79h411v-67l-319 -568h328v-79zM252 916q21 0 35 -14t14 -43q0 -28 -14 -42t-35 -14q-22 0 -36.5 14t-14.5 42q0 29 14 43t37 14z" />
    <glyph glyph-name="zdotaccent" unicode="&#x17c;" horiz-adv-x="409" 
d="M376 0h-342v57l241 411h-227v68h321v-63l-238 -405h245v-68zM208 738q21 0 35 -14t14 -43q0 -28 -14 -42t-35 -14q-22 0 -36.5 14t-14.5 42q0 29 14 43t37 14z" />
    <glyph glyph-name="Zcaron" unicode="&#x17d;" horiz-adv-x="495" 
d="M463 0h-429v67l318 568h-309v79h411v-67l-319 -568h328v-79zM207 784q-12 22 -31.5 48.5t-41 52.5t-39.5 47v12h55q23 -17 49 -41.5t50 -51.5q26 28 50 50t50 43h56v-12q-17 -19 -39.5 -45t-42.5 -53t-31 -50h-85z" />
    <glyph glyph-name="zcaron" unicode="&#x17e;" horiz-adv-x="409" 
d="M376 0h-342v57l241 411h-227v68h321v-63l-238 -405h245v-68zM164 606q-12 22 -31.5 48.5t-41 52.5t-39.5 47v12h55q23 -17 49 -41.5t50 -51.5q26 28 50 50t50 43h56v-12q-17 -19 -39.5 -45t-42.5 -53t-31 -50h-85z" />
    <glyph glyph-name="longs" unicode="&#x17f;" horiz-adv-x="290" 
d="M240 693q-38 0 -56.5 -26.5t-18.5 -90.5v-576h-85v575q0 99 40 144.5t116 45.5q28 0 50.5 -5t42.5 -13l-22 -67q-15 5 -33 9t-34 4z" />
    <glyph glyph-name="uni0180" unicode="&#x180;" horiz-adv-x="559" 
d="M312 -10q-53 0 -89.5 21.5t-59.5 56.5h-6l-16 -68h-63v605h-70v65h70v90h85v-90h177v-65h-177v-46q0 -27 -1.5 -52.5t-3.5 -43.5h5q22 36 58.5 58t90.5 22q90 0 143.5 -70t53.5 -206t-53.5 -206.5t-143.5 -70.5zM297 62q124 0 124 206q0 202 -126 202q-76 0 -104 -51.5
t-28 -148.5v-8q0 -99 29.5 -149.5t104.5 -50.5z" />
    <glyph glyph-name="uni0181" unicode="&#x181;" horiz-adv-x="665" 
d="M167 0v639h-23q-30 0 -44 -16.5t-14 -41.5q0 -17 3.5 -32.5t5.5 -22.5h-76q-4 10 -7 26.5t-3 31.5q0 62 33 96t105 34h207q119 0 180.5 -41t61.5 -134q0 -65 -31.5 -107t-91.5 -53v-5q64 -12 104 -51.5t40 -118.5q0 -96 -59.5 -150t-164.5 -54h-226zM365 409
q79 0 110 30.5t31 90.5q0 56 -36.5 82.5t-113.5 26.5h-101v-230h110zM379 75q79 0 112 36t33 99q0 58 -35.5 92t-117.5 34h-116v-261h124z" />
    <glyph glyph-name="uni0182" unicode="&#x182;" horiz-adv-x="555" 
d="M88 0v714h382v-78h-294v-223h87q93 0 147.5 -24.5t77.5 -70.5t23 -108q0 -99 -57 -154.5t-181 -55.5h-185zM267 76q82 0 118 33.5t36 99.5q0 69 -38 98.5t-126 29.5h-81v-261h91z" />
    <glyph glyph-name="uni0183" unicode="&#x183;" horiz-adv-x="559" 
d="M313 -10q-54 0 -90.5 21.5t-59.5 56.5h-6l-15 -68h-64v760h378v-72h-293v-127q0 -27 -1.5 -53t-2.5 -45h4q23 36 59 58t90 22q91 0 144 -69.5t53 -206.5q0 -136 -53 -206.5t-143 -70.5zM297 62q124 0 124 206q0 203 -126 203q-76 0 -104 -52t-28 -148v-8
q0 -98 29.5 -149.5t104.5 -51.5z" />
    <glyph glyph-name="uni0184" unicode="&#x184;" horiz-adv-x="569" 
d="M305 -8q-119 0 -171 57.5t-52 159.5v505h87v-300h112q88 0 141.5 -27t78 -73.5t24.5 -106.5q0 -97 -55 -156t-165 -59zM304 68q131 0 131 139q0 72 -43 101t-122 29h-100v-125q0 -78 32.5 -111t101.5 -33z" />
    <glyph glyph-name="uni0185" unicode="&#x185;" horiz-adv-x="552" 
d="M288 -10q-99 0 -156 68.5t-57 206.5v495h85v-186q0 -31 -1.5 -62.5t-2.5 -49.5h4q21 37 57 60.5t91 23.5q88 0 141 -70t53 -208q0 -135 -57.5 -206.5t-156.5 -71.5zM290 63q62 0 93 52.5t31 153.5q0 203 -124 203q-72 0 -101 -49.5t-29 -149.5v-9q0 -98 33.5 -149.5
t96.5 -51.5z" />
    <glyph glyph-name="uni0186" unicode="&#x186;" horiz-adv-x="564" 
d="M212 -10q-50 0 -87.5 7t-71.5 21v78q34 -12 70 -20t76 -8q100 0 158 77t57 212q0 84 -22.5 149.5t-69.5 102.5t-120 37q-40 0 -75.5 -10.5t-64.5 -25.5l-34 75q76 39 186 39q99 0 164 -46t97 -128t32 -191q0 -111 -35.5 -194t-101.5 -129t-158 -46z" />
    <glyph glyph-name="uni0187" unicode="&#x187;" horiz-adv-x="564" 
d="M566 861q19 0 33.5 -4t23.5 -9v-71q-7 3 -19.5 6.5t-27.5 3.5q-20 0 -31.5 -11.5t-11.5 -39.5v-50l-34 -76q-29 15 -62.5 25.5t-74.5 10.5q-68 0 -116 -36.5t-72.5 -102t-24.5 -150.5q0 -134 55 -211.5t160 -77.5q40 0 76.5 8t70.5 20v-78q-34 -14 -71.5 -21t-87.5 -7
q-97 0 -162.5 44.5t-99 127t-33.5 196.5q0 106 34.5 188.5t102.5 130t168 47.5q49 0 96 -12v22q0 127 108 127z" />
    <glyph glyph-name="uni0188" unicode="&#x188;" horiz-adv-x="446" 
d="M271 -10q-101 0 -160.5 67t-59.5 208q0 142 61.5 211.5t163.5 69.5q13 0 26.5 -1.5t26.5 -3.5v96q0 129 108 129q18 0 32.5 -4.5t23.5 -8.5v-71q-6 3 -19 6.5t-28 3.5q-20 0 -31.5 -12t-11.5 -39v-122l-27 -71q-22 9 -49 16t-50 7q-138 0 -138 -205q0 -99 34 -150.5
t101 -51.5q35 0 65 8t56 21v-74q-51 -29 -124 -29z" />
    <glyph glyph-name="Dtail" unicode="&#x189;" horiz-adv-x="652" 
d="M282 714q146 0 229.5 -89t83.5 -260q0 -181 -86 -273t-243 -92h-174v321h-65v74h65v319h190zM273 638h-93v-243h149v-74h-149v-245h78q245 0 245 285q0 141 -60 209t-170 68z" />
    <glyph glyph-name="uni018A" unicode="&#x18a;" horiz-adv-x="730" 
d="M167 0v638h-23q-30 0 -44 -16.5t-14 -41.5q0 -17 3.5 -32t5.5 -22h-75q-4 10 -7.5 26t-3.5 29q0 63 33 98t104 35h215q146 0 229 -89t83 -260q0 -181 -85.5 -273t-241.5 -92h-179zM337 76q244 0 244 285q0 141 -59.5 209t-169.5 68h-97v-562h82z" />
    <glyph glyph-name="uni018B" unicode="&#x18b;" horiz-adv-x="555" 
d="M289 0q-125 0 -185 53.5t-60 149.5q0 61 25.5 108.5t81.5 74.5t149 27h79v223h-294v78h382v-714h-178zM294 76h85v262h-73q-87 0 -129.5 -31.5t-42.5 -101.5q0 -129 160 -129z" />
    <glyph glyph-name="uni018C" unicode="&#x18c;" horiz-adv-x="559" 
d="M247 -10q-91 0 -144 70t-53 207q0 136 53 207t144 71q53 0 89.5 -22t59.5 -57h5q-1 16 -3 39t-2 38v145h-294v72h380v-760h-69l-12 71h-5q-23 -36 -59 -58.5t-90 -22.5zM263 62q72 0 103 46t31 139v21q0 101 -30 152.5t-105 51.5q-63 0 -93.5 -55t-30.5 -152
q0 -98 31 -150.5t94 -52.5z" />
    <glyph glyph-name="uni018D" unicode="&#x18d;" horiz-adv-x="547" 
d="M285 546q67 0 117 -29t77.5 -81t27.5 -121q0 -92 -44.5 -153t-124.5 -92q38 -30 67 -64t29 -89q0 -38 -20 -71.5t-60 -54t-100 -20.5q-62 0 -104.5 19t-61.5 35l35 68q28 -22 61 -36t70 -14q53 0 74.5 23t21.5 49q0 30 -23 58t-86 68q-70 44 -109 87t-54 87.5t-15 91.5
q0 78 29.5 131.5t79.5 80.5t113 27zM283 475q-65 0 -100 -46t-35 -122q0 -66 33.5 -115t92.5 -83q69 24 107 74t38 126q0 77 -36.5 121.5t-99.5 44.5z" />
    <glyph glyph-name="uni018E" unicode="&#x18e;" horiz-adv-x="500" 
d="M55 0v78h269v256h-254v77h254v225h-269v78h356v-714h-356z" />
    <glyph glyph-name="uni018F" unicode="&#x18f;" horiz-adv-x="665" 
d="M298 646q-57 0 -105 -11t-94 -30v82q43 17 91 27.5t113 10.5q150 0 227.5 -98t77.5 -271q0 -107 -32.5 -190t-96.5 -129.5t-159 -46.5q-138 0 -201 97t-63 268v35h459q-6 123 -59 189.5t-158 66.5zM321 68q84 0 135.5 63t58.5 183h-367q0 -117 40.5 -181.5t132.5 -64.5z
" />
    <glyph glyph-name="uni0190" unicode="&#x190;" horiz-adv-x="531" 
d="M292 724q65 0 115.5 -19.5t87.5 -48.5l-42 -62q-32 25 -68 40t-89 15q-55 0 -90 -28t-35 -82q0 -62 43 -97t129 -35h80v-75h-84q-93 0 -143 -31.5t-50 -99.5q0 -67 42 -101.5t123 -34.5q48 0 97.5 13t88.5 34v-82q-40 -19 -88 -29.5t-105 -10.5q-89 0 -144 25.5t-80 71.5
t-25 106q0 76 42.5 121.5t124.5 55.5v4q-66 14 -103.5 57.5t-37.5 114.5q0 78 55 128t156 50z" />
    <glyph glyph-name="uni0191" unicode="&#x191;" horiz-adv-x="544" 
d="M122 -242q-64 0 -98.5 36.5t-34.5 98.5q0 29 9 58l75 -23q-2 -7 -3 -14.5t-1 -16.5q0 -30 13.5 -46.5t38.5 -16.5q27 0 45 23.5t18 78.5v778h337v-78h-249v-224h233v-78h-233v-404q0 -87 -41.5 -129.5t-108.5 -42.5z" />
    <glyph glyph-name="fhook" unicode="&#x192;" horiz-adv-x="390" 
d="M129 -242q-64 0 -101 35t-37 94q0 25 5 44l73 -16q-1 -4 -2 -10t-1 -14q0 -30 16 -45.5t38 -15.5q26 0 40.5 19t14.5 61v558h-83v42l83 29v31q0 100 38.5 147.5t116.5 47.5q28 0 51.5 -5t43.5 -12l-22 -68q-15 5 -33 9t-35 4q-39 0 -56.5 -28t-17.5 -93v-36h116v-68h-116
v-554q0 -74 -34.5 -115t-97.5 -41z" />
    <glyph glyph-name="uni0193" unicode="&#x193;" horiz-adv-x="661" 
d="M619 861q18 0 32.5 -4t23.5 -9v-71q-6 3 -19 6.5t-28 3.5q-20 0 -31.5 -11.5t-11.5 -39.5v-55l-33 -76q-36 18 -78 29.5t-86 11.5q-114 0 -176.5 -76t-62.5 -213q0 -84 23.5 -149.5t75 -103t135.5 -37.5q40 0 69.5 5t54.5 12v215h-136v78h223v-351q-53 -18 -107.5 -27
t-119.5 -9q-103 0 -171.5 46t-103.5 128.5t-35 193.5q0 109 38.5 191.5t113 128.5t181.5 46q65 0 121 -17v27q0 127 108 127z" />
    <glyph glyph-name="Gammalatin" unicode="&#x194;" horiz-adv-x="523" 
d="M261 -240q-54 0 -83.5 37t-29.5 97q0 47 19.5 105t44.5 114l-212 601h92l126 -371q14 -40 25 -80t18 -75q6 34 17.5 73.5t24.5 78.5l127 374h93l-213 -600q30 -65 47.5 -121.5t17.5 -97.5q0 -60 -29 -97.5t-85 -37.5zM262 -167q15 0 24 14.5t9 46.5q0 26 -8 64t-25 78
q-18 -42 -26 -78.5t-8 -60.5q0 -34 9.5 -49t24.5 -15z" />
    <glyph glyph-name="uni0195" unicode="&#x195;" horiz-adv-x="849" 
d="M579 -10q-96 0 -145.5 45.5t-49.5 158.5v151q0 65 -22.5 96.5t-71.5 31.5q-71 0 -99 -49.5t-28 -145.5v-278h-85v760h85v-220q0 -42 -5 -77h6q20 41 58.5 62t82.5 21q82 0 123 -47t41 -144v-154q0 -73 27 -105.5t84 -32.5q56 0 83 32.5t27 112.5v328h85v-331
q0 -117 -49.5 -166t-146.5 -49z" />
    <glyph glyph-name="Iotalatin" unicode="&#x196;" horiz-adv-x="315" 
d="M216 -10q-61 0 -97.5 33.5t-36.5 122.5v568h88v-561q0 -44 15 -64.5t48 -20.5q19 0 39.5 3.5t31.5 7.5v-73q-15 -7 -39.5 -11.5t-48.5 -4.5z" />
    <glyph glyph-name="uni0197" unicode="&#x197;" horiz-adv-x="318" 
d="M280 714v-51l-77 -18v-239h86v-74h-86v-263l77 -18v-51h-242v51l77 18v263h-86v74h86v239l-77 18v51h242z" />
    <glyph glyph-name="uni0198" unicode="&#x198;" horiz-adv-x="565" 
d="M502 721q17 0 29 -2.5t21 -6.5v-71q-6 2 -18.5 3.5t-21.5 1.5q-13 0 -27 -9t-36 -39l-145 -196l253 -402h-101l-211 338l-69 -71v-267h-88v714h88v-360q21 30 47.5 64.5t50.5 67.5l111 157q23 33 41 49.5t36 22.5t40 6z" />
    <glyph glyph-name="uni0199" unicode="&#x199;" horiz-adv-x="485" 
d="M195 765q16 0 32.5 -3.5t25.5 -8.5v-72q-7 3 -19.5 6t-25.5 3q-23 0 -34.5 -14t-11.5 -49v-257q0 -20 -1 -46t-3 -48h4q9 14 25 36t28 37l152 187h98l-186 -221l198 -315h-99l-157 256l-59 -58v-198h-84v625q0 68 29 104t88 36z" />
    <glyph glyph-name="uni019A" unicode="&#x19a;" horiz-adv-x="243" 
d="M79 0v350h-67v65h67v345h85v-345h67v-65h-67v-350h-85z" />
    <glyph glyph-name="uni019B" unicode="&#x19b;" horiz-adv-x="491" 
d="M-1 0l202 524l-20 62l-89 -30l-20 60l88 29q-13 27 -28 38t-40 11q-15 0 -27 -1.5t-21 -4.5v71q12 3 27 5t32 2q52 0 82.5 -23.5t51.5 -70.5l92 30l20 -60l-89 -30l153 -489q9 -32 20.5 -46.5t29.5 -14.5q8 0 16 2t14 3v-67q-23 -10 -52 -10q-40 0 -63 23t-39 76l-60 195
q-11 32 -22.5 72t-16.5 67h-4q-6 -28 -16.5 -58.5t-22.5 -61.5l-110 -303h-88z" />
    <glyph glyph-name="uni019C" unicode="&#x19c;" horiz-adv-x="955" 
d="M260 -10q-91 0 -134.5 48.5t-43.5 156.5v519h87v-514q0 -67 26.5 -100t84.5 -33q69 1 109.5 44.5t40.5 129.5v473h88v-514q0 -67 26.5 -100t85.5 -33q71 1 110 48t39 139v460h87v-714h-70l-13 79h-5q-30 -46 -76.5 -67.5t-94.5 -21.5q-124 -1 -161 98h-5
q-32 -53 -80.5 -75.5t-100.5 -22.5z" />
    <glyph glyph-name="uni019D" unicode="&#x19d;" horiz-adv-x="690" 
d="M35 -223q-35 0 -59 13v75q11 -4 23 -7t26 -3q31 0 47 21t16 76v762h103l331 -584h4q-2 31 -4.5 81t-2.5 91v412h83v-714h-104l-332 589h-4q3 -37 5.5 -83.5t2.5 -92.5v-470q0 -88 -33.5 -127t-101.5 -39z" />
    <glyph glyph-name="uni019E" unicode="&#x19e;" horiz-adv-x="559" 
d="M389 -240v585q0 128 -97 128q-71 0 -100 -48.5t-29 -146.5v-278h-85v536h68l12 -73h5q23 42 61 62.5t84 20.5q83 0 124.5 -46.5t41.5 -144.5v-595h-85z" />
    <glyph glyph-name="uni019F" unicode="&#x19f;" horiz-adv-x="699" 
d="M642 358q0 -108 -32 -191t-97 -130t-163 -47q-101 0 -166 47.5t-96 131t-31 190.5q0 171 73 268.5t221 97.5q97 0 162 -47t97 -129.5t32 -190.5zM351 647q-96 0 -145 -63.5t-56 -181.5h398q-7 117 -55 181t-142 64zM350 67q96 0 145 67.5t54 191.5h-399q4 -123 53.5 -191
t146.5 -68z" />
    <glyph glyph-name="Ohorn" unicode="&#x1a0;" horiz-adv-x="699" 
d="M639 358q0 -108 -32 -191t-96 -130t-162 -47q-101 0 -165.5 47.5t-95.5 131t-31 190.5q0 171 72 268.5t220 97.5q73 0 128 -27t91 -76q39 13 50 50t11 88h87l7 -11q-9 -67 -37 -114.5t-86 -68.5q39 -84 39 -208zM149 358q0 -138 48.5 -214t150.5 -76q103 0 150.5 75.5
t47.5 214.5q0 138 -47.5 213.5t-149.5 75.5q-103 0 -151.5 -75.5t-48.5 -213.5z" />
    <glyph glyph-name="ohorn" unicode="&#x1a1;" horiz-adv-x="561" 
d="M497 269q0 -133 -60 -206t-165 -73q-66 0 -116 32.5t-78 95t-28 151.5q0 134 59.5 205.5t164.5 71.5q99 0 159 -70q39 13 50.5 51t11.5 90h87l7 -11q-11 -75 -39 -120t-83 -64q14 -31 22 -69.5t8 -83.5zM138 269q0 -102 33 -154.5t103 -52.5t102.5 52.5t32.5 154.5
t-32.5 153t-103.5 51t-103 -51t-32 -153z" />
    <glyph glyph-name="uni01A2" unicode="&#x1a2;" horiz-adv-x="987" 
d="M619 358q0 -108 -30.5 -191t-93 -130t-156.5 -47q-98 0 -160 47.5t-92 131t-30 190.5q0 171 70 268.5t212 97.5q69 0 120 -26t86 -72q32 49 79.5 73.5t99.5 24.5q91 0 136 -49t45 -156v-520h-87v514q0 68 -27 100.5t-85 32.5q-87 0 -130 -71q43 -89 43 -218zM149 358
q0 -138 46.5 -214t142.5 -76q97 0 143 75.5t46 214.5t-46 214t-142 75q-97 0 -143.5 -75.5t-46.5 -213.5z" />
    <glyph glyph-name="uni01A3" unicode="&#x1a3;" horiz-adv-x="790" 
d="M481 269q0 -130 -57 -204.5t-160 -74.5q-97 0 -155.5 74t-58.5 205q0 133 56.5 205t159.5 72q102 0 159 -77q24 38 60.5 57.5t78.5 19.5q75 0 113 -46t38 -145v-595h-85v588q0 125 -84 125q-32 0 -55.5 -14t-38.5 -36q29 -63 29 -154zM138 269q0 -98 30.5 -152.5
t96.5 -54.5t97 54t31 153q0 98 -31 151t-97 53q-67 0 -97 -53t-30 -151z" />
    <glyph glyph-name="uni01A4" unicode="&#x1a4;" horiz-adv-x="621" 
d="M164 0v638h-20q-30 0 -44 -16.5t-14 -41.5q0 -17 3.5 -32t5.5 -22h-75q-4 10 -7.5 26t-3.5 29q0 63 33 98t104 35h186q128 0 187 -54t59 -156q0 -65 -25.5 -116t-82 -80.5t-149.5 -29.5h-69v-278h-88zM312 354q90 0 132.5 33.5t42.5 113.5q0 70 -39 103.5t-122 33.5h-74
v-284h60z" />
    <glyph glyph-name="uni01A5" unicode="&#x1a5;" horiz-adv-x="559" 
d="M195 765q17 0 33 -3.5t26 -8.5v-72q-8 3 -20 6t-26 3q-23 0 -34 -14t-11 -49v-87q0 -17 -2 -38.5t-4 -38.5h6q23 38 58.5 60.5t90.5 22.5q91 0 144 -69t53 -208q0 -136 -53 -207.5t-143 -71.5q-54 0 -91 22.5t-59 56.5h-5q1 -18 3 -41t2 -41v-227h-85v865q0 68 29 104
t88 36zM295 474q-70 0 -100.5 -46.5t-31.5 -141.5v-18q0 -102 29.5 -154t104.5 -52q63 0 93.5 55.5t30.5 151.5t-30.5 150.5t-95.5 54.5z" />
    <glyph glyph-name="uni01A6" unicode="&#x1a6;" horiz-adv-x="563" 
d="M448 -100l-156 296h-116v-196h-88v714h88v-100h83q125 0 184 -50.5t59 -151.5q0 -80 -37.5 -125.5t-92.5 -66.5l177 -320h-101zM263 270q149 0 149 138q0 69 -38 99t-118 30h-80v-267h87z" />
    <glyph glyph-name="uni01A7" unicode="&#x1a7;" horiz-adv-x="499" 
d="M243 724q93 0 151 -48t57 -133q0 -83 -43 -130.5t-123 -81.5q-55 -23 -89 -43.5t-49 -44.5t-15 -59q0 -53 36.5 -84.5t104.5 -31.5q49 0 96.5 13.5t83.5 30.5v-85q-33 -16 -80 -26.5t-101 -10.5q-105 0 -166.5 53t-61.5 146q0 79 47.5 125t131.5 82q52 22 82.5 41.5
t44 44t13.5 60.5q0 46 -31.5 74.5t-90.5 28.5q-37 0 -72 -10t-68 -26l-27 77q34 16 77 27t92 11z" />
    <glyph glyph-name="uni01A8" unicode="&#x1a8;" horiz-adv-x="428" 
d="M204 546q86 0 133 -37t47 -103q0 -43 -18 -71.5t-51 -49.5t-79 -42q-64 -28 -88.5 -50.5t-24.5 -52.5q0 -37 26.5 -57.5t81.5 -20.5q43 0 83.5 12.5t68.5 28.5v-80q-28 -15 -65.5 -24t-88.5 -9q-93 0 -141 39t-48 115q0 43 17.5 71.5t49.5 49.5t77 41q65 29 91.5 49
t26.5 54q0 30 -25 48t-72 18q-29 0 -59 -9t-59 -23l-29 68q34 17 70.5 26t75.5 9z" />
    <glyph glyph-name="uni01A9" unicode="&#x1a9;" horiz-adv-x="495" 
d="M34 0v73l202 295l-193 274v72h410v-78h-213q-21 0 -47.5 0.5t-42.5 1.5l177 -247v-24l-197 -290q31 1 60 1.5t60 0.5h213v-79h-429z" />
    <glyph glyph-name="uni01AA" unicode="&#x1aa;" horiz-adv-x="328" 
d="M109 766q60 0 91.5 -36.5t31.5 -108.5v-704q0 -43 15 -64t48 -21q19 0 39.5 4t31.5 8v-68q-34 -16 -86 -16q-61 0 -97 33.5t-36 122.5v624h-39q-60 0 -88.5 32t-28.5 81q0 28 11.5 54t37 42.5t69.5 16.5zM100 699q-21 0 -29.5 -14t-8.5 -32q0 -25 14.5 -36t36.5 -11h34
v23q0 33 -10.5 51.5t-36.5 18.5z" />
    <glyph glyph-name="uni01AB" unicode="&#x1ab;" horiz-adv-x="324" 
d="M190 -240q-16 0 -31.5 3.5t-24.5 7.5v73q9 -4 20.5 -6.5t24.5 -2.5q22 0 34.5 13.5t12.5 45.5v96h-16q-35 0 -63.5 15t-46 49.5t-17.5 92.5v321h-67v43l69 30l30 118h53v-123h131v-68h-131v-315q0 -91 71 -91q17 0 35 3t31 8v-177q0 -66 -28.5 -101t-86.5 -35z" />
    <glyph glyph-name="uni01AC" unicode="&#x1ac;" horiz-adv-x="516" 
d="M226 0v636h-82q-30 0 -44 -15.5t-14 -40.5q0 -17 3.5 -32t5.5 -22h-75q-4 10 -7.5 26t-3.5 29q0 63 33 98t104 35h359v-78h-191v-636h-88z" />
    <glyph glyph-name="uni01AD" unicode="&#x1ad;" horiz-adv-x="324" 
d="M221 765q19 0 37.5 -3.5t30.5 -8.5v-72q-10 3 -28 6t-36 3q-30 0 -43.5 -16.5t-13.5 -52.5v-85h131v-68h-131v-315q0 -91 71 -91q17 0 35 3t31 8v-67q-34 -16 -85 -16q-59 0 -98 34.5t-39 123.5v320h-67v43l67 30v75q0 72 35 110.5t103 38.5z" />
    <glyph glyph-name="uni01AE" unicode="&#x1ae;" horiz-adv-x="492" 
d="M336 -223q-67 0 -100.5 39t-33.5 124v696h-192v78h471v-78h-191v-689q0 -51 15 -71.5t46 -20.5q14 0 26 3t23 7v-75q-24 -13 -64 -13z" />
    <glyph glyph-name="Uhorn" unicode="&#x1af;" horiz-adv-x="707" 
d="M572 616q48 7 62 46t14 98h86l8 -11q-11 -81 -48.5 -131.5t-121.5 -62.5v-306q0 -77 -25.5 -135.5t-79 -91t-137.5 -32.5q-122 0 -185 69.5t-63 190.5v464h87v-467q0 -87 41 -133t121 -46q82 0 118 48.5t36 131.5v466h87v-98z" />
    <glyph glyph-name="uhorn" unicode="&#x1b0;" horiz-adv-x="617" 
d="M648 606q-11 -80 -47.5 -132t-119.5 -62v-412h-69l-12 71h-5q-23 -41 -62.5 -61t-86.5 -20q-89 0 -131 49t-42 147v350h86v-341q0 -132 100 -132q76 0 106.5 48t30.5 146v279h85v-62q46 8 59.5 47t13.5 97h87z" />
    <glyph glyph-name="Upsilonlatin" unicode="&#x1b1;" horiz-adv-x="700" 
d="M350 67q100 0 148.5 65.5t48.5 182.5q0 103 -31 183t-111 146v70h260v-78h-160q60 -51 97.5 -135.5t37.5 -190.5q0 -149 -76 -235t-214 -86q-95 0 -159.5 40.5t-98 112.5t-33.5 167q0 111 37.5 193.5t96.5 133.5h-159v78h260v-70q-81 -69 -112.5 -147.5t-31.5 -182.5
q0 -73 21 -128.5t65 -87t114 -31.5z" />
    <glyph glyph-name="uni01B2" unicode="&#x1b2;" horiz-adv-x="654" 
d="M325 -10q-119 0 -181 66.5t-62 186.5v471h87v-474q0 -172 160 -172q81 0 118.5 45.5t37.5 127.5v342q0 34 -15 48.5t-41 14.5q-17 0 -33.5 -5t-29.5 -13v75q13 9 36.5 15t47.5 6q122 0 122 -132v-350q0 -115 -61 -183.5t-186 -68.5z" />
    <glyph glyph-name="uni01B3" unicode="&#x1b3;" horiz-adv-x="519" 
d="M207 0v274l-207 440h94l157 -345l108 272q18 49 42 66t57 17q19 0 33 -3.5t23 -6.5v-73q-7 3 -16.5 5t-19.5 2q-14 0 -23.5 -9t-19.5 -32l-140 -330v-277h-88z" />
    <glyph glyph-name="uni01B4" unicode="&#x1b4;" horiz-adv-x="490" 
d="M437 546q15 0 29 -3t24 -8v-67q-6 1 -13.5 3t-14.5 2q-16 0 -27 -13t-22 -47l-160 -490q-25 -78 -66 -120.5t-110 -42.5q-20 0 -36 2.5t-29 5.5v71q10 -3 24 -5t28 -2q39 0 63.5 24.5t40.5 73.5l23 70l-189 536h90l101 -304q12 -36 21.5 -70.5t15.5 -66.5h4q5 25 16 62
t23 75l67 218q16 54 38 75t59 21z" />
    <glyph glyph-name="uni01B5" unicode="&#x1b5;" horiz-adv-x="495" 
d="M67 407h158l127 228h-309v79h411v-67l-134 -240h107v-70h-148l-144 -258h328v-79h-429v67l150 270h-117v70z" />
    <glyph glyph-name="uni01B6" unicode="&#x1b6;" horiz-adv-x="409" 
d="M369 536v-63l-94 -163h87v-68h-129l-102 -174h245v-68h-342v57l109 185h-93v68h134l91 158h-227v68h321z" />
    <glyph glyph-name="uni01B7" unicode="&#x1b7;" horiz-adv-x="526" 
d="M445 714v-69l-211 -237q114 -5 177.5 -56.5t63.5 -146.5q0 -98 -64.5 -156.5t-195.5 -58.5q-51 0 -98 9.5t-85 29.5v83q39 -22 87.5 -34.5t93.5 -12.5q87 0 128.5 36.5t41.5 104.5q0 67 -48 99t-139 32h-61v70l202 228h-286v79h394z" />
    <glyph glyph-name="uni01B8" unicode="&#x1b8;" horiz-adv-x="526" 
d="M304 -10q-88 0 -143.5 28.5t-82 78.5t-26.5 112q0 70 28.5 118t78 74t110.5 28l-188 216v69h394v-79h-286l183 -213v-64h-67q-72 0 -117 -35t-45 -112q0 -69 42 -107.5t129 -38.5q44 0 93 12.5t87 34.5v-83q-37 -20 -85.5 -29.5t-104.5 -9.5z" />
    <glyph glyph-name="uni01B9" unicode="&#x1b9;" horiz-adv-x="451" 
d="M270 -240q-75 0 -128 31t-81 84t-28 121q0 75 28.5 124.5t78 75.5t110.5 31l-194 248v61h365v-72h-265l191 -245v-61h-49q-83 0 -131 -38t-48 -123q0 -75 42.5 -119.5t114.5 -44.5q51 0 91.5 12.5t69.5 27.5v-80q-27 -14 -67.5 -23.5t-99.5 -9.5z" />
    <glyph glyph-name="uni01BA" unicode="&#x1ba;" horiz-adv-x="450" 
d="M193 -240q-76 0 -126 30t-50 94q0 55 38.5 89.5t135.5 34.5q70 0 100 29t30 90q0 60 -42 86t-120 26h-56v60l162 165h-237v72h353v-61l-168 -169q93 -5 143 -50t50 -129q0 -86 -49.5 -138.5t-157.5 -52.5q-59 0 -79 -13.5t-20 -38.5q0 -24 25.5 -38t71.5 -14q48 0 86 11
t66 25v-78q-27 -13 -67 -21.5t-89 -8.5z" />
    <glyph glyph-name="uni01BB" unicode="&#x1bb;" horiz-adv-x="518" 
d="M236 765q88 0 139 -50t51 -135q0 -45 -11.5 -86t-32.5 -80h85v-67h-126l-200 -271v-4h328v-72h-426v69l201 278h-169v67h214q25 43 36.5 82t11.5 83q0 52 -28.5 80.5t-76.5 28.5q-42 0 -73.5 -14.5t-65.5 -44.5l-44 58q39 37 84 57.5t103 20.5z" />
    <glyph glyph-name="uni01BC" unicode="&#x1bc;" horiz-adv-x="527" 
d="M218 -10q-51 0 -95.5 8t-82.5 28v82q40 -21 86.5 -32.5t90.5 -11.5q85 0 126.5 43.5t41.5 116.5t-44 108t-111 35h-107v269h-83v78h404v-78h-235v-196h35q69 0 121 -26t81.5 -74t29.5 -116q0 -69 -28.5 -121.5t-86 -82.5t-143.5 -30z" />
    <glyph glyph-name="uni01BD" unicode="&#x1bd;" horiz-adv-x="438" 
d="M185 -10q-48 0 -87 8t-66 23v76q29 -14 67.5 -24.5t81.5 -10.5q58 0 93 25t35 79q0 51 -33.5 75t-101.5 24h-73v199h-63v72h331v-72h-189v-129h20q102 0 148 -43t46 -120q0 -51 -23 -92t-69.5 -65.5t-116.5 -24.5z" />
    <glyph glyph-name="uni01BE" unicode="&#x1be;" horiz-adv-x="414" 
d="M182 -10q-49 0 -86 7.5t-65 22.5v80q29 -15 68 -26.5t80 -11.5q55 0 82 21t27 58q0 30 -21 53.5t-76 54.5q-39 23 -55.5 53.5t-16.5 85.5v80h-80v43l82 30l30 118h53v-123h134v-68h-134v-79q0 -33 10.5 -51.5t37.5 -35.5q59 -33 89.5 -67t30.5 -91q0 -74 -51 -114
t-139 -40z" />
    <glyph glyph-name="uni01BF" unicode="&#x1bf;" horiz-adv-x="541" 
d="M306 546q85 0 137.5 -57t52.5 -165q0 -102 -46 -175t-121.5 -113.5t-165.5 -45.5v-230h-85v776h69l12 -73h4q22 39 56.5 61t86.5 22zM288 474q-66 0 -95.5 -46.5t-29.5 -141.5v-224q69 7 124.5 39t88 87t32.5 134q0 67 -30.5 109.5t-89.5 42.5z" />
    <glyph glyph-name="uni01C0" unicode="&#x1c0;" horiz-adv-x="315" 
d="M119 0v761h77v-761h-77z" />
    <glyph glyph-name="uni01C1" unicode="&#x1c1;" horiz-adv-x="535" 
d="M119 0v761h77v-761h-77zM339 0v761h77v-761h-77z" />
    <glyph glyph-name="uni01C2" unicode="&#x1c2;" horiz-adv-x="476" 
d="M276 761v-253h138v-70h-138v-101h138v-70h-138v-267h-77v267h-137v70h137v101h-137v70h137v253h77z" />
    <glyph glyph-name="uni01C3" unicode="&#x1c3;" horiz-adv-x="257" 
d="M158 201h-59l-23 513h104zM69 54q0 35 16.5 50.5t42.5 15.5q25 0 42 -15t17 -51q0 -35 -17.5 -50.5t-41.5 -15.5q-26 0 -42.5 16t-16.5 50z" />
    <glyph glyph-name="uni01C4" unicode="&#x1c4;" horiz-adv-x="1139" 
d="M595 365q0 -181 -85.5 -273t-242.5 -92h-179v714h195q145 0 228.5 -89t83.5 -260zM503 361q0 141 -59.5 209t-170.5 68h-97v-562h82q245 0 245 285zM1108 0h-429v67l318 568h-309v79h411v-67l-319 -568h328v-79zM852 784q-12 22 -31.5 48.5t-41 52.5t-39.5 47v12h55
q23 -17 49 -41.5t50 -51.5q26 28 50 50t50 43h56v-12q-17 -19 -39.5 -45t-42.5 -53t-31 -50h-85z" />
    <glyph glyph-name="uni01C5" unicode="&#x1c5;" horiz-adv-x="1060" 
d="M595 365q0 -181 -85.5 -273t-242.5 -92h-179v714h195q145 0 228.5 -89t83.5 -260zM503 361q0 141 -59.5 209t-170.5 68h-97v-562h82q245 0 245 285zM1028 0h-342v57l241 411h-227v68h321v-63l-238 -405h245v-68zM815 606q-12 22 -31.5 48.5t-41 52.5t-39.5 47v12h55
q23 -17 49 -41.5t50 -51.5q26 28 50 50t50 43h56v-12q-17 -19 -39.5 -45t-42.5 -53t-31 -50h-85z" />
    <glyph glyph-name="uni01C6" unicode="&#x1c6;" horiz-adv-x="968" 
d="M247 -10q-91 0 -144 70t-53 207t53 208t144 71q53 0 89.5 -22t59.5 -57h5q-1 17 -3 39.5t-2 38.5v215h86v-760h-69l-12 71h-5q-23 -36 -59 -58.5t-90 -22.5zM263 62q72 0 103 46t31 140v21q0 101 -30 153t-105 52q-63 0 -93.5 -55.5t-30.5 -152.5q0 -99 31 -151.5
t94 -52.5zM935 0h-342v57l241 411h-227v68h321v-63l-238 -405h245v-68zM723 606q-12 22 -31.5 48.5t-41 52.5t-39.5 47v12h55q23 -17 49 -41.5t50 -51.5q26 28 50 50t50 43h56v-12q-17 -19 -39.5 -45t-42.5 -53t-31 -50h-85z" />
    <glyph glyph-name="uni01C7" unicode="&#x1c7;" horiz-adv-x="723" 
d="M88 0v714h88v-635h270v-79h-358zM471 -191q-42 0 -70 12v76q14 -5 30.5 -7.5t35.5 -2.5q36 0 60.5 25t24.5 93v709h88v-707q0 -104 -45.5 -151t-123.5 -47z" />
    <glyph glyph-name="uni01C8" unicode="&#x1c8;" horiz-adv-x="709" 
d="M88 0v714h88v-635h270v-79h-358zM539 681q0 29 14 43t37 14q21 0 35 -14t14 -43q0 -28 -14 -42t-35 -14q-22 0 -36.5 14t-14.5 42zM495 -240q-21 0 -37.5 3t-29.5 8v71q13 -4 26.5 -6.5t28.5 -2.5q29 0 46 18.5t17 65.5v619h85v-617q0 -77 -33 -118t-103 -41z" />
    <glyph glyph-name="uni01C9" unicode="&#x1c9;" horiz-adv-x="481" 
d="M163 0h-85v760h85v-760zM311 681q0 29 14 43t37 14q21 0 35 -14t14 -43q0 -28 -14 -42t-35 -14q-22 0 -36.5 14t-14.5 42zM267 -240q-21 0 -37.5 3t-29.5 8v71q13 -4 26.5 -6.5t28.5 -2.5q29 0 46 18.5t17 65.5v619h85v-617q0 -77 -33 -118t-103 -41z" />
    <glyph glyph-name="uni01CA" unicode="&#x1ca;" horiz-adv-x="945" 
d="M602 0h-104l-331 589h-4q2 -37 4.5 -83.5t2.5 -92.5v-413h-82v714h103l331 -584h4q-2 31 -4 81t-2 91v412h82v-714zM693 -191q-42 0 -70 12v76q14 -5 30.5 -7.5t35.5 -2.5q36 0 60.5 25t24.5 93v709h88v-707q0 -104 -45.5 -151t-123.5 -47z" />
    <glyph glyph-name="uni01CB" unicode="&#x1cb;" horiz-adv-x="931" 
d="M602 0h-104l-331 589h-4q2 -37 4.5 -83.5t2.5 -92.5v-413h-82v714h103l331 -584h4q-2 31 -4 81t-2 91v412h82v-714zM761 681q0 29 14 43t37 14q21 0 35 -14t14 -43q0 -28 -14 -42t-35 -14q-22 0 -36.5 14t-14.5 42zM717 -240q-21 0 -37.5 3t-29.5 8v71q13 -4 26.5 -6.5
t28.5 -2.5q29 0 46 18.5t17 65.5v619h85v-617q0 -77 -33 -118t-103 -41z" />
    <glyph glyph-name="uni01CC" unicode="&#x1cc;" horiz-adv-x="799" 
d="M313 546q85 0 128 -46t43 -145v-355h-85v345q0 128 -101 128q-75 0 -105 -48.5t-30 -146.5v-278h-85v536h68l12 -73h5q23 42 63.5 62.5t86.5 20.5zM630 681q0 29 14 43t37 14q21 0 35 -14t14 -43q0 -28 -14 -42t-35 -14q-22 0 -36.5 14t-14.5 42zM586 -240q-21 0 -37.5 3
t-29.5 8v71q13 -4 26.5 -6.5t28.5 -2.5q29 0 46 18.5t17 65.5v619h85v-617q0 -77 -33 -118t-103 -41z" />
    <glyph glyph-name="uni01CD" unicode="&#x1cd;" horiz-adv-x="570" 
d="M478 0l-74 222h-240l-73 -222h-91l240 716h88l241 -716h-91zM311 524q-3 11 -8.5 31t-11 40.5t-8.5 33.5q-5 -28 -12.5 -56t-13.5 -49l-70 -223h194zM240 784q-12 22 -31.5 48.5t-41 52.5t-39.5 47v12h55q23 -17 49 -41.5t50 -51.5q26 28 50 50t50 43h56v-12
q-17 -19 -39.5 -45t-42.5 -53t-31 -50h-85z" />
    <glyph glyph-name="uni01CE" unicode="&#x1ce;" horiz-adv-x="508" 
d="M261 546q89 0 130.5 -45t41.5 -137v-364h-63l-15 75h-3q-30 -43 -65.5 -64t-93.5 -21q-69 0 -110 42t-41 117q0 80 56.5 124t170.5 48l80 3v33q0 65 -24.5 92t-71.5 27q-35 0 -68.5 -11t-64.5 -27l-27 64q34 19 77 31.5t91 12.5zM281 260q-83 -3 -117 -31t-34 -80
q0 -46 23.5 -68t62.5 -22q58 0 95.5 39t37.5 115v50zM213 606q-12 22 -31.5 48.5t-41 52.5t-39.5 47v12h55q23 -17 49 -41.5t50 -51.5q26 28 50 50t50 43h56v-12q-17 -19 -39.5 -45t-42.5 -53t-31 -50h-85z" />
    <glyph glyph-name="uni01CF" unicode="&#x1cf;" horiz-adv-x="318" 
d="M280 0h-242v51l77 18v576l-77 18v51h242v-51l-77 -18v-576l77 -18v-51zM116 784q-12 22 -31.5 48.5t-41 52.5t-39.5 47v12h55q23 -17 49 -41.5t50 -51.5q26 28 50 50t50 43h56v-12q-17 -19 -39.5 -45t-42.5 -53t-31 -50h-85z" />
    <glyph glyph-name="uni01D0" unicode="&#x1d0;" horiz-adv-x="241" 
d="M163 0h-85v536h85v-536zM77 606q-12 22 -31.5 48.5t-41 52.5t-39.5 47v12h55q23 -17 49 -41.5t50 -51.5q26 28 50 50t50 43h56v-12q-17 -19 -39.5 -45t-42.5 -53t-31 -50h-85z" />
    <glyph glyph-name="uni01D1" unicode="&#x1d1;" horiz-adv-x="696" 
d="M640 358q0 -108 -32 -191t-96.5 -130t-162.5 -47q-101 0 -165.5 47.5t-95.5 131t-31 190.5q0 171 72.5 268.5t219.5 97.5q98 0 162.5 -47t96.5 -129.5t32 -190.5zM149 358q0 -138 49 -214t150 -76q102 0 150.5 75.5t48.5 214.5t-48 214t-150 75t-151 -75.5t-49 -213.5z
M305 784q-12 22 -31.5 48.5t-41 52.5t-39.5 47v12h55q23 -17 49 -41.5t50 -51.5q26 28 50 50t50 43h56v-12q-17 -19 -39.5 -45t-42.5 -53t-31 -50h-85z" />
    <glyph glyph-name="uni01D2" unicode="&#x1d2;" horiz-adv-x="546" 
d="M497 269q0 -130 -59 -204.5t-166 -74.5q-67 0 -117 33.5t-77.5 96t-27.5 149.5q0 133 58.5 205t165.5 72q101 0 162 -71.5t61 -205.5zM138 269q0 -98 32.5 -152.5t103.5 -54.5q69 0 102 54t33 153q0 98 -33 151t-103 53q-71 0 -103 -53t-32 -151zM230 606
q-12 22 -31.5 48.5t-41 52.5t-39.5 47v12h55q23 -17 49 -41.5t50 -51.5q26 28 50 50t50 43h56v-12q-17 -19 -39.5 -45t-42.5 -53t-31 -50h-85z" />
    <glyph glyph-name="uni01D3" unicode="&#x1d3;" horiz-adv-x="654" 
d="M572 242q0 -115 -61 -183.5t-186 -68.5q-119 0 -181 66.5t-62 186.5v471h87v-474q0 -172 160 -172q81 0 118.5 45.5t37.5 127.5v473h87v-472zM284 784q-12 22 -31.5 48.5t-41 52.5t-39.5 47v12h55q23 -17 49 -41.5t50 -51.5q26 28 50 50t50 43h56v-12q-17 -19 -39.5 -45
t-42.5 -53t-31 -50h-85z" />
    <glyph glyph-name="uni01D4" unicode="&#x1d4;" horiz-adv-x="559" 
d="M481 536v-536h-69l-12 71h-5q-23 -41 -63 -61t-87 -20q-88 0 -130 49t-42 147v350h86v-341q0 -132 100 -132q77 0 107 48.5t30 143.5v281h85zM237 606q-12 22 -31.5 48.5t-41 52.5t-39.5 47v12h55q23 -17 49 -41.5t50 -51.5q26 28 50 50t50 43h56v-12q-17 -19 -39.5 -45
t-42.5 -53t-31 -50h-85z" />
    <glyph glyph-name="uni01D5" unicode="&#x1d5;" horiz-adv-x="654" 
d="M466 1002v-66h-277v66h277zM239 878q18 0 31 -12t13 -38q0 -25 -13 -36.5t-31 -11.5t-31.5 11.5t-13.5 36.5q0 26 13.5 38t31.5 12zM416 878q18 0 31.5 -12t13.5 -38q0 -25 -13.5 -36.5t-31.5 -11.5t-31.5 11.5t-13.5 36.5q0 26 13.5 38t31.5 12zM572 242
q0 -115 -61 -183.5t-186 -68.5q-119 0 -181 66.5t-62 186.5v471h87v-474q0 -172 160 -172q81 0 118.5 45.5t37.5 127.5v473h87v-472z" />
    <glyph glyph-name="uni01D6" unicode="&#x1d6;" horiz-adv-x="559" 
d="M418 825v-67h-277v67h277zM191 700q18 0 31 -12t13 -37q0 -26 -13 -37.5t-31 -11.5t-31.5 11.5t-13.5 37.5q0 25 13.5 37t31.5 12zM368 700q18 0 31.5 -12t13.5 -37q0 -26 -13.5 -37.5t-31.5 -11.5t-31.5 11.5t-13.5 37.5q0 25 13.5 37t31.5 12zM481 536v-536h-69l-12 71
h-5q-23 -41 -63 -61t-87 -20q-88 0 -130 49t-42 147v350h86v-341q0 -132 100 -132q77 0 107 48.5t30 143.5v281h85z" />
    <glyph glyph-name="uni01D7" unicode="&#x1d7;" horiz-adv-x="654" 
d="M279 916q21 28 45 64.5t39 68.5h98v-10q-12 -18 -34 -42.5t-47 -49t-46 -43.5h-55v12zM240 783q-18 0 -31.5 11.5t-13.5 36.5t13.5 37.5t31.5 12.5t31 -12.5t13 -37.5t-13 -36.5t-31 -11.5zM415 783q-19 0 -32 11.5t-13 36.5t13 37.5t32 12.5q18 0 31 -12.5t13 -37.5
t-13 -36.5t-31 -11.5zM572 242q0 -115 -61 -183.5t-186 -68.5q-119 0 -181 66.5t-62 186.5v471h87v-474q0 -172 160 -172q81 0 118.5 45.5t37.5 127.5v473h87v-472z" />
    <glyph glyph-name="uni01D8" unicode="&#x1d8;" horiz-adv-x="559" 
d="M231 738q21 28 45 65t39 68h98v-9q-12 -19 -34 -43.5t-47 -49t-46 -42.5h-55v11zM192 605q-18 0 -31.5 11.5t-13.5 37.5q0 25 13.5 37t31.5 12t31 -12t13 -37q0 -26 -13 -37.5t-31 -11.5zM367 605q-18 0 -31.5 11.5t-13.5 37.5q0 25 13.5 37t31.5 12t31.5 -12t13.5 -37
q0 -26 -13.5 -37.5t-31.5 -11.5zM481 536v-536h-69l-12 71h-5q-23 -41 -63 -61t-87 -20q-88 0 -130 49t-42 147v350h86v-341q0 -132 100 -132q77 0 107 48.5t30 143.5v281h85z" />
    <glyph glyph-name="uni01D9" unicode="&#x1d9;" horiz-adv-x="654" 
d="M284 907q-19 34 -51 70.5t-58 68.5v12h50q25 -18 51.5 -39t49.5 -48q25 27 50 46.5t52 40.5h52v-12q-26 -29 -59.5 -67t-51.5 -72h-85zM240 780q-18 0 -31.5 11.5t-13.5 37.5q0 25 13.5 37t31.5 12t31 -12t13 -37q0 -26 -13 -37.5t-31 -11.5zM415 780q-18 0 -31.5 11.5
t-13.5 37.5q0 25 13.5 37t31.5 12t31 -12t13 -37q0 -26 -13 -37.5t-31 -11.5zM572 242q0 -115 -61 -183.5t-186 -68.5q-119 0 -181 66.5t-62 186.5v471h87v-474q0 -172 160 -172q81 0 118.5 45.5t37.5 127.5v473h87v-472z" />
    <glyph glyph-name="uni01DA" unicode="&#x1da;" horiz-adv-x="559" 
d="M237 729q-20 34 -52 71t-58 68v12h50q25 -18 51.5 -39t49.5 -47q25 27 50.5 46t51.5 40h53v-12q-27 -29 -60.5 -67t-51.5 -72h-84zM192 602q-18 0 -31.5 11.5t-13.5 37.5q0 25 13.5 37t31.5 12t31 -12t13 -37q0 -26 -13 -37.5t-31 -11.5zM367 602q-18 0 -31.5 11.5
t-13.5 37.5q0 25 13.5 37t31.5 12t31.5 -12t13.5 -37q0 -26 -13.5 -37.5t-31.5 -11.5zM481 536v-536h-69l-12 71h-5q-23 -41 -63 -61t-87 -20q-88 0 -130 49t-42 147v350h86v-341q0 -132 100 -132q77 0 107 48.5t30 143.5v281h85z" />
    <glyph glyph-name="uni01DB" unicode="&#x1db;" horiz-adv-x="654" 
d="M292 1049q15 -32 39 -68.5t45 -64.5v-12h-55q-21 19 -46 43.5t-47 49t-33 42.5v10h97zM240 881q18 0 31 -12.5t13 -37.5t-13 -36.5t-31 -11.5t-31.5 11.5t-13.5 36.5t13.5 37.5t31.5 12.5zM415 881q18 0 31 -12.5t13 -37.5t-13 -36.5t-31 -11.5q-19 0 -32 11.5t-13 36.5
t13 37.5t32 12.5zM572 242q0 -115 -61 -183.5t-186 -68.5q-119 0 -181 66.5t-62 186.5v471h87v-474q0 -172 160 -172q81 0 118.5 45.5t37.5 127.5v473h87v-472z" />
    <glyph glyph-name="uni01DC" unicode="&#x1dc;" horiz-adv-x="559" 
d="M245 871q14 -31 38 -68t46 -65v-11h-55q-21 18 -46.5 42.5t-47.5 49t-33 43.5v9h98zM192 703q18 0 31 -12t13 -37q0 -26 -13 -37.5t-31 -11.5t-31.5 11.5t-13.5 37.5q0 25 13.5 37t31.5 12zM367 703q18 0 31.5 -12t13.5 -37q0 -26 -13.5 -37.5t-31.5 -11.5t-31.5 11.5
t-13.5 37.5q0 25 13.5 37t31.5 12zM481 536v-536h-69l-12 71h-5q-23 -41 -63 -61t-87 -20q-88 0 -130 49t-42 147v350h86v-341q0 -132 100 -132q77 0 107 48.5t30 143.5v281h85z" />
    <glyph glyph-name="uni01DD" unicode="&#x1dd;" horiz-adv-x="510" 
d="M227 546q111 0 172 -73t61 -201q0 -134 -57 -208t-156 -74q-63 0 -108 30.5t-68.5 85t-23.5 125.5v53h326q-4 189 -152 189q-42 0 -78 -9t-73 -27v74q36 18 73 26.5t84 8.5zM134 217q0 -68 27.5 -112.5t86.5 -44.5q55 0 86.5 40.5t37.5 116.5h-238z" />
    <glyph glyph-name="uni01DE" unicode="&#x1de;" horiz-adv-x="570" 
d="M422 1002v-66h-277v66h277zM195 878q18 0 31 -12t13 -38q0 -25 -13 -36.5t-31 -11.5t-31.5 11.5t-13.5 36.5q0 26 13.5 38t31.5 12zM372 878q18 0 31.5 -12t13.5 -38q0 -25 -13.5 -36.5t-31.5 -11.5t-31.5 11.5t-13.5 36.5q0 26 13.5 38t31.5 12zM478 0l-74 222h-240
l-73 -222h-91l240 716h88l241 -716h-91zM311 524q-3 11 -8.5 31t-11 40.5t-8.5 33.5q-5 -28 -12.5 -56t-13.5 -49l-70 -223h194z" />
    <glyph glyph-name="uni01DF" unicode="&#x1df;" horiz-adv-x="508" 
d="M395 825v-67h-277v67h277zM168 700q18 0 31 -12t13 -37q0 -26 -13 -37.5t-31 -11.5q-19 0 -32 11.5t-13 37.5q0 25 13 37t32 12zM345 700q18 0 31 -12t13 -37q0 -26 -13 -37.5t-31 -11.5t-31.5 11.5t-13.5 37.5q0 25 13.5 37t31.5 12zM261 546q89 0 130.5 -45t41.5 -137
v-364h-63l-15 75h-3q-30 -43 -65.5 -64t-93.5 -21q-69 0 -110 42t-41 117q0 80 56.5 124t170.5 48l80 3v33q0 65 -24.5 92t-71.5 27q-35 0 -68.5 -11t-64.5 -27l-27 64q34 19 77 31.5t91 12.5zM281 260q-83 -3 -117 -31t-34 -80q0 -46 23.5 -68t62.5 -22q58 0 95.5 39
t37.5 115v50z" />
    <glyph glyph-name="uni01E0" unicode="&#x1e0;" horiz-adv-x="570" 
d="M423 996v-66h-282v66h282zM284 882q20 0 34 -13.5t14 -41.5q0 -27 -14 -41t-34 -14q-22 0 -35.5 13.5t-13.5 41.5t13.5 41.5t35.5 13.5zM478 0l-74 222h-240l-73 -222h-91l240 716h88l241 -716h-91zM311 524q-3 11 -8.5 31t-11 40.5t-8.5 33.5q-5 -28 -12.5 -56
t-13.5 -49l-70 -223h194z" />
    <glyph glyph-name="uni01E1" unicode="&#x1e1;" horiz-adv-x="508" 
d="M395 826v-67h-277v67h277zM256 716q20 0 33.5 -13.5t13.5 -41.5q0 -27 -13.5 -40.5t-33.5 -13.5q-21 0 -34.5 13.5t-13.5 40.5q0 28 13.5 41.5t34.5 13.5zM261 546q89 0 130.5 -45t41.5 -137v-364h-63l-15 75h-3q-30 -43 -65.5 -64t-93.5 -21q-69 0 -110 42t-41 117
q0 80 56.5 124t170.5 48l80 3v33q0 65 -24.5 92t-71.5 27q-35 0 -68.5 -11t-64.5 -27l-27 64q34 19 77 31.5t91 12.5zM281 260q-83 -3 -117 -31t-34 -80q0 -46 23.5 -68t62.5 -22q58 0 95.5 39t37.5 115v50z" />
    <glyph glyph-name="uni01E2" unicode="&#x1e2;" horiz-adv-x="784" 
d="M729 0h-340v222h-207l-91 -222h-92l293 714h437v-78h-252v-225h235v-77h-235v-256h252v-78zM212 301h178v334h-43zM567 855v-68h-277v68h277z" />
    <glyph glyph-name="uni01E3" unicode="&#x1e3;" horiz-adv-x="785" 
d="M545 546q61 0 104 -30.5t65.5 -84.5t22.5 -124v-55h-310q2 -96 37.5 -143t102.5 -47q43 0 78 9.5t70 27.5v-74q-36 -18 -71.5 -26.5t-80.5 -8.5q-63 0 -111 28t-75 83q-31 -53 -73 -82t-109 -29q-70 0 -111.5 42t-41.5 117q0 80 55 124t164 48l79 3v34q0 63 -25.5 90.5
t-71.5 27.5q-33 0 -67 -10.5t-65 -27.5l-27 64q33 19 76.5 31.5t89.5 12.5q109 0 146 -81q50 81 149 81zM544 476q-51 0 -81 -39.5t-35 -116.5h223q0 68 -26 112t-81 44zM274 260q-79 -3 -111.5 -30.5t-32.5 -80.5q0 -46 22.5 -68t59.5 -22q56 0 92 39t36 115v50zM537 677
v-68h-277v68h277z" />
    <glyph glyph-name="uni01E4" unicode="&#x1e4;" horiz-adv-x="661" 
d="M373 -10q-109 0 -179 46t-103.5 128.5t-33.5 191.5t38.5 192t113 129.5t181.5 46.5q55 0 104 -11.5t91 -31.5l-33 -76q-36 18 -79 29.5t-87 11.5q-114 0 -175.5 -74.5t-61.5 -214.5q0 -87 23.5 -152.5t75 -102t135.5 -36.5q40 0 69.5 4.5t54.5 11.5v77h-130v69h130v81
h-136v77h223v-158h59v-69h-59v-131q-49 -17 -101 -27.5t-120 -10.5z" />
    <glyph glyph-name="uni01E5" unicode="&#x1e5;" horiz-adv-x="559" 
d="M247 546q47 0 84.5 -19.5t64.5 -61.5h5l11 71h70v-569h56v-66h-62q-12 -62 -65.5 -101.5t-155.5 -39.5q-99 0 -169 33v77q75 -40 172 -40q109 0 130 71h-161v66h170v61q0 17 0.5 37t2.5 36h-4q-50 -82 -149 -82q-93 0 -145 68.5t-52 194.5q0 124 52.5 194t144.5 70z
M261 473q-60 0 -91.5 -50t-31.5 -142q0 -190 125 -190q69 0 101.5 41.5t32.5 128.5v19q0 100 -32.5 146.5t-103.5 46.5z" />
    <glyph glyph-name="Gcaron" unicode="&#x1e6;" horiz-adv-x="661" 
d="M371 377h223v-351q-53 -18 -107.5 -27t-119.5 -9q-103 0 -171.5 46t-103.5 128.5t-35 193.5q0 109 38.5 191.5t113 128.5t181.5 46q55 0 104 -11.5t91 -31.5l-33 -76q-36 18 -78 29.5t-86 11.5q-114 0 -176.5 -76t-62.5 -213q0 -84 23.5 -149.5t75 -103t135.5 -37.5
q40 0 69.5 5t54.5 12v215h-136v78zM326 784q-12 22 -31.5 48.5t-41 52.5t-39.5 47v12h55q23 -17 49 -41.5t50 -51.5q26 28 50 50t50 43h56v-12q-17 -19 -39.5 -45t-42.5 -53t-31 -50h-85z" />
    <glyph glyph-name="gcaron" unicode="&#x1e7;" horiz-adv-x="559" 
d="M247 546q47 0 84.5 -19.5t64.5 -61.5h5l11 71h70v-544q0 -114 -55 -173t-172 -59q-100 0 -169 33v79q75 -39 172 -39q66 0 102.5 37t36.5 111v19q0 14 1 36t2 36h-4q-50 -82 -149 -82q-93 0 -145 72t-52 205q0 132 52.5 205.5t144.5 73.5zM261 473q-60 0 -91.5 -53.5
t-31.5 -153.5q0 -204 125 -204q69 0 101.5 44.5t32.5 139.5v22q0 109 -32.5 157t-103.5 48zM233 606q-12 22 -31.5 48.5t-41 52.5t-39.5 47v12h55q23 -17 49 -41.5t50 -51.5q26 28 50 50t50 43h56v-12q-17 -19 -39.5 -45t-42.5 -53t-31 -50h-85z" />
    <glyph glyph-name="uni01E8" unicode="&#x1e8;" horiz-adv-x="556" 
d="M557 0h-101l-215 337l-65 -63v-274h-88v714h88v-354q21 26 46 57t52 67l173 230h100l-244 -313zM264 784q-12 22 -31.5 48.5t-41 52.5t-39.5 47v12h55q23 -17 49 -41.5t50 -51.5q26 28 50 50t50 43h56v-12q-17 -19 -39.5 -45t-42.5 -53t-31 -50h-85z" />
    <glyph glyph-name="uni01E9" unicode="&#x1e9;" horiz-adv-x="485" 
d="M162 370q0 -20 -1.5 -46t-2.5 -48h4q9 14 25 36t28 37l152 187h98l-186 -221l198 -315h-99l-157 256l-59 -58v-198h-84v760h84v-390zM78 830q-12 22 -31.5 48.5t-41 52.5t-39.5 47v12h55q23 -17 49 -41.5t50 -51.5q26 28 50 50t50 43h56v-12q-17 -19 -39.5 -45t-42.5 -53
t-31 -50h-85z" />
    <glyph glyph-name="uni01EA" unicode="&#x1ea;" horiz-adv-x="696" 
d="M640 358q0 -108 -32 -191t-96.5 -130t-162.5 -47q-101 0 -165.5 47.5t-95.5 131t-31 190.5q0 171 72.5 268.5t219.5 97.5q98 0 162.5 -47t96.5 -129.5t32 -190.5zM149 358q0 -138 49 -214t150 -76q102 0 150.5 75.5t48.5 214.5t-48 214t-150 75t-151 -75.5t-49 -213.5z
M342 -116q0 -47 45 -47q15 0 25 2t17 4v-56q-12 -4 -25.5 -6t-31.5 -2q-51 0 -75.5 24t-24.5 69q0 41 27.5 79t60.5 63l47 -14q-34 -33 -49.5 -59.5t-15.5 -56.5z" />
    <glyph glyph-name="uni01EB" unicode="&#x1eb;" horiz-adv-x="546" 
d="M497 269q0 -130 -59 -204.5t-166 -74.5q-67 0 -117 33.5t-77.5 96t-27.5 149.5q0 133 58.5 205t165.5 72q101 0 162 -71.5t61 -205.5zM138 269q0 -98 32.5 -152.5t103.5 -54.5q69 0 102 54t33 153q0 98 -33 151t-103 53q-71 0 -103 -53t-32 -151zM268 -116q0 -47 45 -47
q15 0 25 2t17 4v-56q-12 -4 -25.5 -6t-31.5 -2q-51 0 -75.5 24t-24.5 69q0 41 27.5 79t60.5 63l47 -14q-34 -33 -49.5 -59.5t-15.5 -56.5z" />
    <glyph glyph-name="uni01EC" unicode="&#x1ec;" horiz-adv-x="696" 
d="M640 358q0 -108 -32 -191t-96.5 -130t-162.5 -47q-101 0 -165.5 47.5t-95.5 131t-31 190.5q0 171 72.5 268.5t219.5 97.5q98 0 162.5 -47t96.5 -129.5t32 -190.5zM149 358q0 -138 49 -214t150 -76q102 0 150.5 75.5t48.5 214.5t-48 214t-150 75t-151 -75.5t-49 -213.5z
M487 855v-68h-277v68h277zM349 -116q0 -47 45 -47q15 0 25 2t17 4v-56q-12 -4 -25.5 -6t-31.5 -2q-51 0 -75.5 24t-24.5 69q0 41 27.5 79t60.5 63l47 -14q-34 -33 -49.5 -59.5t-15.5 -56.5z" />
    <glyph glyph-name="uni01ED" unicode="&#x1ed;" horiz-adv-x="546" 
d="M497 269q0 -130 -59 -204.5t-166 -74.5q-67 0 -117 33.5t-77.5 96t-27.5 149.5q0 133 58.5 205t165.5 72q101 0 162 -71.5t61 -205.5zM138 269q0 -98 32.5 -152.5t103.5 -54.5q69 0 102 54t33 153q0 98 -33 151t-103 53q-71 0 -103 -53t-32 -151zM412 677v-68h-277v68
h277zM268 -116q0 -47 45 -47q15 0 25 2t17 4v-56q-12 -4 -25.5 -6t-31.5 -2q-51 0 -75.5 24t-24.5 69q0 41 27.5 79t60.5 63l47 -14q-34 -33 -49.5 -59.5t-15.5 -56.5z" />
    <glyph glyph-name="uni01EE" unicode="&#x1ee;" horiz-adv-x="526" 
d="M445 714v-69l-211 -237q114 -5 177.5 -56.5t63.5 -146.5q0 -98 -64.5 -156.5t-195.5 -58.5q-51 0 -98 9.5t-85 29.5v83q39 -22 87.5 -34.5t93.5 -12.5q87 0 128.5 36.5t41.5 104.5q0 67 -48 99t-139 32h-61v70l202 228h-286v79h394zM204 784q-12 22 -31.5 48.5t-41 52.5
t-39.5 47v12h55q23 -17 49 -41.5t50 -51.5q26 28 50 50t50 43h56v-12q-17 -19 -39.5 -45t-42.5 -53t-31 -50h-85z" />
    <glyph glyph-name="uni01EF" unicode="&#x1ef;" horiz-adv-x="451" 
d="M395 536v-61l-194 -248q62 -5 111 -30.5t77.5 -73.5t28.5 -119q0 -72 -29 -127t-84 -86t-131 -31q-53 0 -93 9.5t-66 23.5v80q28 -15 68.5 -27.5t92.5 -12.5q72 0 114 45t42 124q0 81 -48 118.5t-131 37.5h-49v61l192 245h-265v72h364zM173 606q-12 22 -31.5 48.5
t-41 52.5t-39.5 47v12h55q23 -17 49 -41.5t50 -51.5q26 28 50 50t50 43h56v-12q-17 -19 -39.5 -45t-42.5 -53t-31 -50h-85z" />
    <glyph glyph-name="uni01F0" unicode="&#x1f0;" horiz-adv-x="241" 
d="M27 -240q-21 0 -38 3t-29 8v71q13 -4 26.5 -6.5t28.5 -2.5q29 0 46 18.5t17 64.5v620h85v-617q0 -76 -33 -117.5t-103 -41.5zM78 606q-12 22 -31.5 48.5t-41 52.5t-39.5 47v12h55q23 -17 49 -41.5t50 -51.5q26 28 50 50t50 43h56v-12q-17 -19 -39.5 -45t-42.5 -53
t-31 -50h-85z" />
    <glyph glyph-name="uni01F1" unicode="&#x1f1;" horiz-adv-x="1135" 
d="M595 365q0 -181 -85.5 -273t-242.5 -92h-179v714h195q145 0 228.5 -89t83.5 -260zM503 361q0 141 -59.5 209t-170.5 68h-97v-562h82q245 0 245 285zM1103 0h-429v67l318 568h-309v79h411v-67l-319 -568h328v-79z" />
    <glyph glyph-name="uni01F2" unicode="&#x1f2;" horiz-adv-x="1057" 
d="M595 365q0 -181 -85.5 -273t-242.5 -92h-179v714h195q145 0 228.5 -89t83.5 -260zM503 361q0 141 -59.5 209t-170.5 68h-97v-562h82q245 0 245 285zM1024 0h-342v57l241 411h-227v68h321v-63l-238 -405h245v-68z" />
    <glyph glyph-name="uni01F3" unicode="&#x1f3;" horiz-adv-x="968" 
d="M247 -10q-91 0 -144 70t-53 207t53 208t144 71q53 0 89.5 -22t59.5 -57h5q-1 17 -3 39.5t-2 38.5v215h86v-760h-69l-12 71h-5q-23 -36 -59 -58.5t-90 -22.5zM263 62q72 0 103 46t31 140v21q0 101 -30 153t-105 52q-63 0 -93.5 -55.5t-30.5 -152.5q0 -99 31 -151.5
t94 -52.5zM935 0h-342v57l241 411h-227v68h321v-63l-238 -405h245v-68z" />
    <glyph glyph-name="uni01F4" unicode="&#x1f4;" horiz-adv-x="661" 
d="M371 377h223v-351q-53 -18 -107.5 -27t-119.5 -9q-103 0 -171.5 46t-103.5 128.5t-35 193.5q0 109 38.5 191.5t113 128.5t181.5 46q55 0 104 -11.5t91 -31.5l-33 -76q-36 18 -78 29.5t-86 11.5q-114 0 -176.5 -76t-62.5 -213q0 -84 23.5 -149.5t75 -103t135.5 -37.5
q40 0 69.5 5t54.5 12v215h-136v78zM511 934q-13 -19 -37.5 -47.5t-52.5 -56.5t-50 -46h-56v12q24 32 50 73t43 75h103v-10z" />
    <glyph glyph-name="uni01F5" unicode="&#x1f5;" horiz-adv-x="559" 
d="M247 546q47 0 84.5 -19.5t64.5 -61.5h5l11 71h70v-544q0 -114 -55 -173t-172 -59q-100 0 -169 33v79q75 -39 172 -39q66 0 102.5 37t36.5 111v19q0 14 1 36t2 36h-4q-50 -82 -149 -82q-93 0 -145 72t-52 205q0 132 52.5 205.5t144.5 73.5zM261 473q-60 0 -91.5 -53.5
t-31.5 -153.5q0 -204 125 -204q69 0 101.5 44.5t32.5 139.5v22q0 109 -32.5 157t-103.5 48zM418 756q-13 -19 -37.5 -47.5t-52.5 -56.5t-50 -46h-56v12q24 32 50 73t43 75h103v-10z" />
    <glyph glyph-name="uni01F6" unicode="&#x1f6;" horiz-adv-x="883" 
d="M88 0v714h88v-302h268v302h88v-538q0 -109 92 -109q48 0 69.5 28.5t21.5 81.5v359h88v-363q0 -80 -42.5 -131t-138.5 -51q-92 0 -135 49.5t-43 133.5v160h-268v-334h-88z" />
    <glyph glyph-name="uni01F7" unicode="&#x1f7;" horiz-adv-x="620" 
d="M357 725q97 0 154.5 -64.5t57.5 -190.5q0 -158 -98 -283t-295 -194v-233h-88v955h70l14 -89h5q30 45 73.5 72t106.5 27zM340 647q-83 0 -123.5 -53t-40.5 -145v-374q139 50 221.5 151t82.5 246q0 86 -36.5 130.5t-103.5 44.5z" />
    <glyph glyph-name="uni01F8" unicode="&#x1f8;" horiz-adv-x="690" 
d="M602 0h-104l-331 589h-4q2 -37 4.5 -83.5t2.5 -92.5v-413h-82v714h103l331 -584h4q-2 31 -4 81t-2 91v412h82v-714zM323 944q11 -23 27 -50.5t34 -53.5t33 -44v-12h-57q-22 18 -50 46t-52.5 56.5t-36.5 47.5v10h102z" />
    <glyph glyph-name="uni01F9" unicode="&#x1f9;" horiz-adv-x="559" 
d="M313 546q85 0 128 -46t43 -145v-355h-85v345q0 128 -101 128q-75 0 -105 -48.5t-30 -146.5v-278h-85v536h68l12 -73h5q23 42 63.5 62.5t86.5 20.5zM260 766q11 -23 27 -50.5t34 -53.5t33 -44v-12h-57q-22 18 -50 46t-52.5 56.5t-36.5 47.5v10h102z" />
    <glyph glyph-name="Aringacute" unicode="&#x1fa;" horiz-adv-x="570" 
d="M235 839q58 68 85 119h104v-7q-11 -16 -33.5 -38.5t-49 -45t-48.5 -38.5h-58v10zM224 616q-22 11 -35 32.5t-13 51.5q0 49 29.5 76.5t77.5 27.5q47 0 78.5 -27.5t31.5 -74.5q0 -31 -13.5 -52.5t-34.5 -33.5l225 -616h-92l-69 190h-251l-66 -190h-92zM284 646
q24 0 39 14.5t15 40.5q0 25 -15 39.5t-39 14.5t-40 -14.5t-16 -39.5q0 -26 14.5 -40.5t41.5 -14.5zM183 269h204l-74 214q-7 22 -15 49.5t-14 49.5q-6 -23 -13.5 -49t-12.5 -43z" />
    <glyph glyph-name="aringacute" unicode="&#x1fb;" horiz-adv-x="508" 
d="M412 951q-11 -15 -37.5 -36t-56.5 -41.5t-50 -32.5h-61v8q26 28 48 56t37 53h120v-7zM259 807q47 0 78.5 -27t31.5 -75q0 -49 -31 -77t-79 -28t-77.5 28t-29.5 76t29.5 75.5t77.5 27.5zM259 759q-23 0 -39 -15t-16 -40t14 -39.5t41 -14.5q25 0 40 14.5t15 39.5t-15 40
t-40 15zM261 546q89 0 130.5 -45t41.5 -137v-364h-63l-15 75h-3q-30 -43 -65.5 -64t-93.5 -21q-69 0 -110 42t-41 117q0 80 56.5 124t170.5 48l80 3v33q0 65 -24.5 92t-71.5 27q-35 0 -68.5 -11t-64.5 -27l-27 64q34 19 77 31.5t91 12.5zM281 260q-83 -3 -117 -31t-34 -80
q0 -46 23.5 -68t62.5 -22q58 0 95.5 39t37.5 115v50z" />
    <glyph glyph-name="AEacute" unicode="&#x1fc;" horiz-adv-x="784" 
d="M729 0h-340v222h-207l-91 -222h-92l293 714h437v-78h-252v-225h235v-77h-235v-256h252v-78zM212 301h178v334h-43zM571 934q-13 -19 -37.5 -47.5t-52.5 -56.5t-50 -46h-56v12q24 32 50 73t43 75h103v-10z" />
    <glyph glyph-name="aeacute" unicode="&#x1fd;" horiz-adv-x="785" 
d="M545 546q61 0 104 -30.5t65.5 -84.5t22.5 -124v-55h-310q2 -96 37.5 -143t102.5 -47q43 0 78 9.5t70 27.5v-74q-36 -18 -71.5 -26.5t-80.5 -8.5q-63 0 -111 28t-75 83q-31 -53 -73 -82t-109 -29q-70 0 -111.5 42t-41.5 117q0 80 55 124t164 48l79 3v34q0 63 -25.5 90.5
t-71.5 27.5q-33 0 -67 -10.5t-65 -27.5l-27 64q33 19 76.5 31.5t89.5 12.5q109 0 146 -81q50 81 149 81zM544 476q-51 0 -81 -39.5t-35 -116.5h223q0 68 -26 112t-81 44zM274 260q-79 -3 -111.5 -30.5t-32.5 -80.5q0 -46 22.5 -68t59.5 -22q56 0 92 39t36 115v50zM541 756
q-13 -19 -37.5 -47.5t-52.5 -56.5t-50 -46h-56v12q24 32 50 73t43 75h103v-10z" />
    <glyph glyph-name="Oslashacute" unicode="&#x1fe;" horiz-adv-x="696" 
d="M640 358q0 -114 -33.5 -196.5t-98 -127t-159.5 -44.5q-98 0 -163 47l-46 -74l-57 34l52 86q-40 49 -59 118.5t-19 157.5q0 171 72.5 268.5t219.5 97.5q47 0 87.5 -12.5t73.5 -35.5l44 72l57 -35l-51 -84q80 -96 80 -272zM149 358q0 -122 38 -192l279 439q-45 42 -117 42
q-102 0 -151 -75.5t-49 -213.5zM548 358q0 119 -39 190l-280 -440q47 -41 119 -41q103 0 151.5 76t48.5 215zM492 934q-13 -19 -37.5 -47.5t-52.5 -56.5t-50 -46h-56v12q24 32 50 73t43 75h103v-10z" />
    <glyph glyph-name="oslashacute" unicode="&#x1ff;" horiz-adv-x="546" 
d="M496 269q0 -133 -60 -206t-165 -73q-65 0 -114 32l-40 -67l-55 33l47 77q-59 75 -59 204q0 134 59 205.5t165 71.5q67 0 117 -35l38 62l56 -33l-45 -73q27 -36 41.5 -85.5t14.5 -112.5zM137 269q0 -39 5 -71t16 -56l194 305q-31 27 -79 27q-71 0 -103.5 -53t-32.5 -152z
M410 269q0 71 -19 120l-194 -303q30 -25 76 -25q70 0 103.5 54.5t33.5 153.5zM416 756q-13 -19 -37.5 -47.5t-52.5 -56.5t-50 -46h-56v12q24 32 50 73t43 75h103v-10z" />
    <glyph glyph-name="uni0200" unicode="&#x200;" horiz-adv-x="570" 
d="M478 0l-74 222h-240l-73 -222h-91l240 716h88l241 -716h-91zM311 524q-3 11 -8.5 31t-11 40.5t-8.5 33.5q-5 -28 -12.5 -56t-13.5 -49l-70 -223h194zM324 944q9 -21 23.5 -48t30.5 -54t30 -46v-12h-46q-22 17 -48.5 45.5t-49 57.5t-32.5 47v10h92zM160 944q16 -36 39 -77
t44 -71v-12h-47q-21 18 -47 46t-48.5 57t-33.5 47v10h93z" />
    <glyph glyph-name="uni0201" unicode="&#x201;" horiz-adv-x="508" 
d="M261 546q89 0 130.5 -45t41.5 -137v-364h-63l-15 75h-3q-30 -43 -65.5 -64t-93.5 -21q-69 0 -110 42t-41 117q0 80 56.5 124t170.5 48l80 3v33q0 65 -24.5 92t-71.5 27q-35 0 -68.5 -11t-64.5 -27l-27 64q34 19 77 31.5t91 12.5zM281 260q-83 -3 -117 -31t-34 -80
q0 -46 23.5 -68t62.5 -22q58 0 95.5 39t37.5 115v50zM297 766q9 -21 23.5 -48t30.5 -54t30 -46v-12h-46q-22 17 -48.5 45.5t-49 57.5t-32.5 47v10h92zM133 766q16 -36 39 -77t44 -71v-12h-47q-21 18 -47 46t-48.5 57t-33.5 47v10h93z" />
    <glyph glyph-name="uni0202" unicode="&#x202;" horiz-adv-x="570" 
d="M478 0l-74 222h-240l-73 -222h-91l240 716h88l241 -716h-91zM311 524q-3 11 -8.5 31t-11 40.5t-8.5 33.5q-5 -28 -12.5 -56t-13.5 -49l-70 -223h194zM286 918q67 0 102.5 -35t38.5 -99h-54q-4 40 -26 53.5t-63 13.5q-36 0 -60.5 -14t-28.5 -53h-55q4 61 42 97.5t104 36.5
z" />
    <glyph glyph-name="uni0203" unicode="&#x203;" horiz-adv-x="508" 
d="M261 546q89 0 130.5 -45t41.5 -137v-364h-63l-15 75h-3q-30 -43 -65.5 -64t-93.5 -21q-69 0 -110 42t-41 117q0 80 56.5 124t170.5 48l80 3v33q0 65 -24.5 92t-71.5 27q-35 0 -68.5 -11t-64.5 -27l-27 64q34 19 77 31.5t91 12.5zM281 260q-83 -3 -117 -31t-34 -80
q0 -46 23.5 -68t62.5 -22q58 0 95.5 39t37.5 115v50zM258 740q67 0 102.5 -35t38.5 -99h-54q-4 40 -26 53.5t-63 13.5q-36 0 -60.5 -14t-28.5 -53h-55q4 61 42 97.5t104 36.5z" />
    <glyph glyph-name="uni0204" unicode="&#x204;" horiz-adv-x="500" 
d="M445 0h-357v714h357v-78h-269v-225h253v-77h-253v-256h269v-78zM313 944q9 -21 23.5 -48t30.5 -54t30 -46v-12h-46q-22 17 -48.5 45.5t-49 57.5t-32.5 47v10h92zM149 944q16 -36 39 -77t44 -71v-12h-47q-21 18 -47 46t-48.5 57t-33.5 47v10h93z" />
    <glyph glyph-name="uni0205" unicode="&#x205;" horiz-adv-x="510" 
d="M264 546q63 0 108 -30.5t68.5 -85t23.5 -124.5v-54h-326q4 -189 152 -189q43 0 78 9t73 28v-75q-37 -18 -73.5 -26.5t-83.5 -8.5q-111 0 -172 73t-61 201q0 134 57 208t156 74zM263 476q-55 0 -86.5 -40t-37.5 -116h238q0 67 -27.5 111.5t-86.5 44.5zM299 766
q9 -21 23.5 -48t30.5 -54t30 -46v-12h-46q-22 17 -48.5 45.5t-49 57.5t-32.5 47v10h92zM135 766q16 -36 39 -77t44 -71v-12h-47q-21 18 -47 46t-48.5 57t-33.5 47v10h93z" />
    <glyph glyph-name="uni0206" unicode="&#x206;" horiz-adv-x="500" 
d="M445 0h-357v714h357v-78h-269v-225h253v-77h-253v-256h269v-78zM274 918q67 0 102.5 -35t38.5 -99h-54q-4 40 -26 53.5t-63 13.5q-36 0 -60.5 -14t-28.5 -53h-55q4 61 42 97.5t104 36.5z" />
    <glyph glyph-name="uni0207" unicode="&#x207;" horiz-adv-x="510" 
d="M264 546q63 0 108 -30.5t68.5 -85t23.5 -124.5v-54h-326q4 -189 152 -189q43 0 78 9t73 28v-75q-37 -18 -73.5 -26.5t-83.5 -8.5q-111 0 -172 73t-61 201q0 134 57 208t156 74zM263 476q-55 0 -86.5 -40t-37.5 -116h238q0 67 -27.5 111.5t-86.5 44.5zM260 740
q67 0 102.5 -35t38.5 -99h-54q-4 40 -26 53.5t-63 13.5q-36 0 -60.5 -14t-28.5 -53h-55q4 61 42 97.5t104 36.5z" />
    <glyph glyph-name="uni0208" unicode="&#x208;" horiz-adv-x="318" 
d="M280 0h-242v51l77 18v576l-77 18v51h242v-51l-77 -18v-576l77 -18v-51zM200 944q9 -21 23.5 -48t30.5 -54t30 -46v-12h-46q-22 17 -48.5 45.5t-49 57.5t-32.5 47v10h92zM36 944q16 -36 39 -77t44 -71v-12h-47q-21 18 -47 46t-48.5 57t-33.5 47v10h93z" />
    <glyph glyph-name="uni0209" unicode="&#x209;" horiz-adv-x="241" 
d="M163 0h-85v536h85v-536zM161 766q9 -21 23.5 -48t30.5 -54t30 -46v-12h-46q-22 17 -48.5 45.5t-49 57.5t-32.5 47v10h92zM-3 766q16 -36 39 -77t44 -71v-12h-47q-21 18 -47 46t-48.5 57t-33.5 47v10h93z" />
    <glyph glyph-name="uni020A" unicode="&#x20a;" horiz-adv-x="318" 
d="M280 0h-242v51l77 18v576l-77 18v51h242v-51l-77 -18v-576l77 -18v-51zM161 918q67 0 102.5 -35t38.5 -99h-54q-4 40 -26 53.5t-63 13.5q-36 0 -60.5 -14t-28.5 -53h-55q4 61 42 97.5t104 36.5z" />
    <glyph glyph-name="uni020B" unicode="&#x20b;" horiz-adv-x="241" 
d="M163 0h-85v536h85v-536zM122 740q67 0 102.5 -35t38.5 -99h-54q-4 40 -26 53.5t-63 13.5q-36 0 -60.5 -14t-28.5 -53h-55q4 61 42 97.5t104 36.5z" />
    <glyph glyph-name="uni020C" unicode="&#x20c;" horiz-adv-x="696" 
d="M640 358q0 -108 -32 -191t-96.5 -130t-162.5 -47q-101 0 -165.5 47.5t-95.5 131t-31 190.5q0 171 72.5 268.5t219.5 97.5q98 0 162.5 -47t96.5 -129.5t32 -190.5zM149 358q0 -138 49 -214t150 -76q102 0 150.5 75.5t48.5 214.5t-48 214t-150 75t-151 -75.5t-49 -213.5z
M389 944q9 -21 23.5 -48t30.5 -54t30 -46v-12h-46q-22 17 -48.5 45.5t-49 57.5t-32.5 47v10h92zM225 944q16 -36 39 -77t44 -71v-12h-47q-21 18 -47 46t-48.5 57t-33.5 47v10h93z" />
    <glyph glyph-name="uni020D" unicode="&#x20d;" horiz-adv-x="546" 
d="M497 269q0 -130 -59 -204.5t-166 -74.5q-67 0 -117 33.5t-77.5 96t-27.5 149.5q0 133 58.5 205t165.5 72q101 0 162 -71.5t61 -205.5zM138 269q0 -98 32.5 -152.5t103.5 -54.5q69 0 102 54t33 153q0 98 -33 151t-103 53q-71 0 -103 -53t-32 -151zM314 766q9 -21 23.5 -48
t30.5 -54t30 -46v-12h-46q-22 17 -48.5 45.5t-49 57.5t-32.5 47v10h92zM150 766q16 -36 39 -77t44 -71v-12h-47q-21 18 -47 46t-48.5 57t-33.5 47v10h93z" />
    <glyph glyph-name="uni020E" unicode="&#x20e;" horiz-adv-x="696" 
d="M640 358q0 -108 -32 -191t-96.5 -130t-162.5 -47q-101 0 -165.5 47.5t-95.5 131t-31 190.5q0 171 72.5 268.5t219.5 97.5q98 0 162.5 -47t96.5 -129.5t32 -190.5zM149 358q0 -138 49 -214t150 -76q102 0 150.5 75.5t48.5 214.5t-48 214t-150 75t-151 -75.5t-49 -213.5z
M350 918q67 0 102.5 -35t38.5 -99h-54q-4 40 -26 53.5t-63 13.5q-36 0 -60.5 -14t-28.5 -53h-55q4 61 42 97.5t104 36.5z" />
    <glyph glyph-name="uni020F" unicode="&#x20f;" horiz-adv-x="546" 
d="M497 269q0 -130 -59 -204.5t-166 -74.5q-67 0 -117 33.5t-77.5 96t-27.5 149.5q0 133 58.5 205t165.5 72q101 0 162 -71.5t61 -205.5zM138 269q0 -98 32.5 -152.5t103.5 -54.5q69 0 102 54t33 153q0 98 -33 151t-103 53q-71 0 -103 -53t-32 -151zM275 740q67 0 102.5 -35
t38.5 -99h-54q-4 40 -26 53.5t-63 13.5q-36 0 -60.5 -14t-28.5 -53h-55q4 61 42 97.5t104 36.5z" />
    <glyph glyph-name="uni0210" unicode="&#x210;" horiz-adv-x="563" 
d="M259 714q125 0 184 -50.5t59 -151.5q0 -80 -37.5 -125t-92.5 -67l177 -320h-101l-156 296h-116v-296h-88v714h171zM256 637h-80v-267h87q149 0 149 138q0 69 -38 99t-118 30zM323 944q9 -21 23.5 -48t30.5 -54t30 -46v-12h-46q-22 17 -48.5 45.5t-49 57.5t-32.5 47v10h92
zM159 944q16 -36 39 -77t44 -71v-12h-47q-21 18 -47 46t-48.5 57t-33.5 47v10h93z" />
    <glyph glyph-name="uni0211" unicode="&#x211;" horiz-adv-x="373" 
d="M303 546q14 0 29 -1.5t28 -4.5l-11 -82q-24 7 -52 7q-36 0 -66.5 -23t-49 -64t-18.5 -94v-284h-85v536h68l11 -95h4q23 45 58.5 75t83.5 30zM257 766q9 -21 23.5 -48t30.5 -54t30 -46v-12h-46q-22 17 -48.5 45.5t-49 57.5t-32.5 47v10h92zM93 766q16 -36 39 -77t44 -71
v-12h-47q-21 18 -47 46t-48.5 57t-33.5 47v10h93z" />
    <glyph glyph-name="uni0212" unicode="&#x212;" horiz-adv-x="563" 
d="M259 714q125 0 184 -50.5t59 -151.5q0 -80 -37.5 -125t-92.5 -67l177 -320h-101l-156 296h-116v-296h-88v714h171zM256 637h-80v-267h87q149 0 149 138q0 69 -38 99t-118 30zM284 918q67 0 102.5 -35t38.5 -99h-54q-4 40 -26 53.5t-63 13.5q-36 0 -60.5 -14t-28.5 -53
h-55q4 61 42 97.5t104 36.5z" />
    <glyph glyph-name="uni0213" unicode="&#x213;" horiz-adv-x="373" 
d="M303 546q14 0 29 -1.5t28 -4.5l-11 -82q-24 7 -52 7q-36 0 -66.5 -23t-49 -64t-18.5 -94v-284h-85v536h68l11 -95h4q23 45 58.5 75t83.5 30zM219 740q67 0 102.5 -35t38.5 -99h-54q-4 40 -26 53.5t-63 13.5q-36 0 -60.5 -14t-28.5 -53h-55q4 61 42 97.5t104 36.5z" />
    <glyph glyph-name="uni0214" unicode="&#x214;" horiz-adv-x="654" 
d="M572 242q0 -115 -61 -183.5t-186 -68.5q-119 0 -181 66.5t-62 186.5v471h87v-474q0 -172 160 -172q81 0 118.5 45.5t37.5 127.5v473h87v-472zM368 944q9 -21 23.5 -48t30.5 -54t30 -46v-12h-46q-22 17 -48.5 45.5t-49 57.5t-32.5 47v10h92zM204 944q16 -36 39 -77t44 -71
v-12h-47q-21 18 -47 46t-48.5 57t-33.5 47v10h93z" />
    <glyph glyph-name="uni0215" unicode="&#x215;" horiz-adv-x="559" 
d="M481 536v-536h-69l-12 71h-5q-23 -41 -63 -61t-87 -20q-88 0 -130 49t-42 147v350h86v-341q0 -132 100 -132q77 0 107 48.5t30 143.5v281h85zM320 766q9 -21 23.5 -48t30.5 -54t30 -46v-12h-46q-22 17 -48.5 45.5t-49 57.5t-32.5 47v10h92zM156 766q16 -36 39 -77t44 -71
v-12h-47q-21 18 -47 46t-48.5 57t-33.5 47v10h93z" />
    <glyph glyph-name="uni0216" unicode="&#x216;" horiz-adv-x="654" 
d="M572 242q0 -115 -61 -183.5t-186 -68.5q-119 0 -181 66.5t-62 186.5v471h87v-474q0 -172 160 -172q81 0 118.5 45.5t37.5 127.5v473h87v-472zM330 918q67 0 102.5 -35t38.5 -99h-54q-4 40 -26 53.5t-63 13.5q-36 0 -60.5 -14t-28.5 -53h-55q4 61 42 97.5t104 36.5z" />
    <glyph glyph-name="uni0217" unicode="&#x217;" horiz-adv-x="559" 
d="M481 536v-536h-69l-12 71h-5q-23 -41 -63 -61t-87 -20q-88 0 -130 49t-42 147v350h86v-341q0 -132 100 -132q77 0 107 48.5t30 143.5v281h85zM282 740q67 0 102.5 -35t38.5 -99h-54q-4 40 -26 53.5t-63 13.5q-36 0 -60.5 -14t-28.5 -53h-55q4 61 42 97.5t104 36.5z" />
    <glyph glyph-name="uni0218" unicode="&#x218;" horiz-adv-x="499" 
d="M455 193q0 -94 -62.5 -148.5t-167.5 -54.5q-54 0 -100 8.5t-79 24.5v86q35 -17 83.5 -29t96.5 -12q69 0 105 32.5t36 84.5q0 35 -13.5 59t-45.5 44t-87 43q-82 33 -124.5 79t-42.5 130q-1 56 26 97.5t75 64t110 22.5q52 0 97 -11t80 -27l-27 -77q-35 16 -73 26t-78 10
q-59 0 -90 -29t-31 -75q0 -37 13 -60.5t43.5 -43t82.5 -40.5q85 -36 129 -81t44 -123zM296 -70q-5 -21 -17 -48t-27 -54.5t-32 -48.5h-47v12q7 17 15 44t14 55t9 49h85v-9z" />
    <glyph glyph-name="uni0219" unicode="&#x219;" horiz-adv-x="428" 
d="M387 147q0 -77 -51 -117t-140 -40q-49 0 -86 8.5t-65 24.5v81q28 -17 68.5 -29.5t82.5 -12.5q56 0 82 21t26 57q0 31 -23.5 53t-89.5 50q-46 20 -78.5 41t-50.5 49.5t-18 71.5q0 66 50.5 103.5t132.5 37.5q43 0 81 -9t72 -26l-30 -68q-29 14 -61 23t-66 9
q-46 0 -71.5 -18t-25.5 -48q0 -34 26.5 -53.5t92.5 -48.5q44 -20 76 -40.5t49 -49t17 -70.5zM271 -70q-5 -21 -17 -48t-27 -54.5t-32 -48.5h-47v12q7 17 15 44t14 55t9 49h85v-9z" />
    <glyph glyph-name="uni021A" unicode="&#x21a;" horiz-adv-x="492" 
d="M290 0h-88v636h-192v78h471v-78h-191v-636zM308 -70q-5 -21 -17 -48t-27 -54.5t-32 -48.5h-47v12q7 17 15 44t14 55t9 49h85v-9z" />
    <glyph glyph-name="uni021B" unicode="&#x21b;" horiz-adv-x="324" 
d="M239 62q17 0 35 3t31 8v-67q-34 -16 -85 -16q-59 0 -98 34.5t-39 123.5v320h-67v43l69 30l30 118h53v-123h131v-68h-131v-315q0 -91 71 -91zM255 -70q-5 -21 -17 -48t-27 -54.5t-32 -48.5h-47v12q7 17 15 44t14 55t9 49h85v-9z" />
    <glyph glyph-name="uni021C" unicode="&#x21c;" horiz-adv-x="530" 
d="M38 -97q137 39 214 80t108 89t31 109q0 60 -27.5 95t-74.5 62q-32 -13 -67 -23.5t-72 -19.5l-17 68q87 24 141 47t78.5 53.5t24.5 76.5q0 54 -32 81.5t-87 27.5q-54 0 -97 -15t-84 -45l-42 61q52 39 108.5 56.5t117.5 17.5q54 0 101.5 -18t76.5 -58t29 -104
q0 -59 -29 -100t-77 -70q32 -17 59.5 -42t44.5 -62.5t17 -88.5q0 -93 -46 -158t-144.5 -113.5t-254.5 -89.5v83z" />
    <glyph glyph-name="uni021D" unicode="&#x21d;" horiz-adv-x="451" 
d="M26 -164q146 34 220 88.5t74 139.5q0 51 -21 80.5t-57 49.5q-26 -10 -55 -19.5t-61 -17.5l-18 65q78 21 120.5 43.5t59.5 50.5t17 64q0 47 -27.5 71t-70.5 24q-39 0 -73 -9t-66 -27l-29 63q40 23 83 33.5t88 10.5q51 0 92 -17t65.5 -53.5t24.5 -95.5q0 -49 -22 -85.5
t-62 -64.5q41 -21 70 -59.5t29 -106.5q0 -86 -48 -144t-133.5 -96t-199.5 -64v76z" />
    <glyph glyph-name="uni021E" unicode="&#x21e;" horiz-adv-x="665" 
d="M576 0h-88v334h-312v-334h-88v714h88v-302h312v302h88v-714zM290 784q-12 22 -31.5 48.5t-41 52.5t-39.5 47v12h55q23 -17 49 -41.5t50 -51.5q26 28 50 50t50 43h56v-12q-17 -19 -39.5 -45t-42.5 -53t-31 -50h-85z" />
    <glyph glyph-name="uni021F" unicode="&#x21f;" horiz-adv-x="559" 
d="M163 540q0 -42 -5 -77h6q21 41 61 62t87 21q87 0 129.5 -47t42.5 -144v-355h-85v345q0 65 -24 96.5t-77 31.5q-76 0 -105.5 -49.5t-29.5 -145.5v-278h-85v760h85v-220zM78 830q-12 22 -31.5 48.5t-41 52.5t-39.5 47v12h55q23 -17 49 -41.5t50 -51.5q26 28 50 50t50 43h56
v-12q-17 -19 -39.5 -45t-42.5 -53t-31 -50h-85z" />
    <glyph glyph-name="uni0220" unicode="&#x220;" horiz-adv-x="662" 
d="M368 725q100 0 156 -56t56 -178v-731h-88v725q0 82 -32.5 122t-107.5 40q-82 0 -129 -50t-47 -142v-455h-88v715h70l14 -86h5q33 46 86 71t105 25z" />
    <glyph glyph-name="uni0221" unicode="&#x221;" horiz-adv-x="791" 
d="M439 -99q4 38 10 72t13 62q-17 12 -27 27.5t-13 29.5h-5q-25 -52 -64 -77t-105 -25q-92 0 -145 70t-53 207t53 208t144 71q53 0 89.5 -22t59.5 -57h5q-1 17 -3 39.5t-2 38.5v215h86v-570q0 -22 2.5 -40t10.5 -33q31 62 73.5 88.5t94.5 26.5q56 -1 88 -31t32 -77
q0 -53 -42 -89t-134 -36q-24 0 -43.5 2.5t-33.5 5.5q-12 -50 -15 -111zM263 62q72 0 103 46t31 140v21q0 101 -30 153t-105 52q-63 0 -93.5 -55.5t-30.5 -152.5q0 -99 31 -151.5t94 -52.5zM613 66q48 0 70 15t22 39q0 17 -13.5 30t-39.5 13q-37 0 -61.5 -22.5t-40.5 -66.5
q27 -8 63 -8z" />
    <glyph glyph-name="uni0222" unicode="&#x222;" horiz-adv-x="627" 
d="M312 -10q-80 0 -137.5 29.5t-88.5 83t-31 126.5q0 80 35.5 129.5t100.5 70.5q-101 46 -101 192v93h87v-95q0 -74 34 -115t103 -41t102.5 41t33.5 115v95h87v-93q0 -147 -102 -193q65 -22 101 -73t36 -127q0 -109 -67.5 -173.5t-192.5 -64.5zM313 68q85 0 125.5 41.5
t40.5 119.5q0 77 -40.5 118t-125.5 41q-86 0 -126 -41t-40 -118q0 -78 40.5 -119.5t125.5 -41.5z" />
    <glyph glyph-name="uni0223" unicode="&#x223;" horiz-adv-x="543" 
d="M270 -10q-101 0 -162 66t-61 182q0 84 30 135.5t86 74.5q-42 17 -63.5 57.5t-21.5 115.5v141h85v-140q0 -74 26.5 -106t81.5 -32q54 0 81.5 32.5t27.5 105.5v140h85v-142q0 -73 -22 -114t-65 -58q55 -22 86.5 -73.5t31.5 -136.5q0 -116 -59.5 -182t-166.5 -66zM272 62
q70 0 103 46.5t33 130.5q0 83 -33 128.5t-104 45.5t-103.5 -45t-32.5 -129t33 -130.5t104 -46.5z" />
    <glyph glyph-name="uni0224" unicode="&#x224;" horiz-adv-x="495" 
d="M348 -196q-19 0 -34.5 3.5t-26.5 7.5v71q9 -3 21.5 -6t26.5 -3q48 0 48 57v66h-349v67l318 568h-309v79h411v-67l-319 -568h328v-142q0 -133 -115 -133z" />
    <glyph glyph-name="uni0225" unicode="&#x225;" horiz-adv-x="409" 
d="M369 536v-63l-238 -405h253v-138q0 -130 -109 -130q-19 0 -34.5 3.5t-25.5 7.5v69q9 -3 20.5 -6t25.5 -3q47 0 47 57v72h-274v57l241 411h-227v68h321z" />
    <glyph glyph-name="uni0226" unicode="&#x226;" horiz-adv-x="570" 
d="M478 0l-74 222h-240l-73 -222h-91l240 716h88l241 -716h-91zM311 524q-3 11 -8.5 31t-11 40.5t-8.5 33.5q-5 -28 -12.5 -56t-13.5 -49l-70 -223h194zM285 916q21 0 35 -14t14 -43q0 -28 -14 -42t-35 -14q-22 0 -36.5 14t-14.5 42q0 29 14 43t37 14z" />
    <glyph glyph-name="uni0227" unicode="&#x227;" horiz-adv-x="508" 
d="M261 546q89 0 130.5 -45t41.5 -137v-364h-63l-15 75h-3q-30 -43 -65.5 -64t-93.5 -21q-69 0 -110 42t-41 117q0 80 56.5 124t170.5 48l80 3v33q0 65 -24.5 92t-71.5 27q-35 0 -68.5 -11t-64.5 -27l-27 64q34 19 77 31.5t91 12.5zM281 260q-83 -3 -117 -31t-34 -80
q0 -46 23.5 -68t62.5 -22q58 0 95.5 39t37.5 115v50zM258 738q21 0 35 -14t14 -43q0 -28 -14 -42t-35 -14q-22 0 -36.5 14t-14.5 42q0 29 14 43t37 14z" />
    <glyph glyph-name="uni0228" unicode="&#x228;" horiz-adv-x="500" 
d="M445 0h-357v714h357v-78h-269v-225h253v-77h-253v-256h269v-78zM367 -138q0 -49 -35 -75.5t-102 -26.5q-34 0 -52 5v55q19 -5 49 -5q70 0 70 45q0 27 -24 39t-62 18l40 83h55l-25 -52q38 -8 62 -29t24 -57z" />
    <glyph glyph-name="uni0229" unicode="&#x229;" horiz-adv-x="510" 
d="M264 546q63 0 108 -30.5t68.5 -85t23.5 -124.5v-54h-326q4 -189 152 -189q43 0 78 9t73 28v-75q-37 -18 -73.5 -26.5t-83.5 -8.5q-111 0 -172 73t-61 201q0 134 57 208t156 74zM263 476q-55 0 -86.5 -40t-37.5 -116h238q0 67 -27.5 111.5t-86.5 44.5zM371 -138
q0 -49 -35 -75.5t-102 -26.5q-34 0 -52 5v55q19 -5 49 -5q70 0 70 45q0 27 -24 39t-62 18l40 83h55l-25 -52q38 -8 62 -29t24 -57z" />
    <glyph glyph-name="uni022A" unicode="&#x22a;" horiz-adv-x="696" 
d="M487 1002v-66h-277v66h277zM260 878q18 0 31 -12t13 -38q0 -25 -13 -36.5t-31 -11.5q-19 0 -32 11.5t-13 36.5q0 26 13 38t32 12zM437 878q18 0 31.5 -12t13.5 -38q0 -25 -13.5 -36.5t-31.5 -11.5t-31.5 11.5t-13.5 36.5q0 26 13.5 38t31.5 12zM640 358q0 -108 -32 -191
t-96.5 -130t-162.5 -47q-101 0 -165.5 47.5t-95.5 131t-31 190.5q0 171 72.5 268.5t219.5 97.5q98 0 162.5 -47t96.5 -129.5t32 -190.5zM149 358q0 -138 49 -214t150 -76q102 0 150.5 75.5t48.5 214.5t-48 214t-150 75t-151 -75.5t-49 -213.5z" />
    <glyph glyph-name="uni022B" unicode="&#x22b;" horiz-adv-x="546" 
d="M412 825v-67h-277v67h277zM185 700q18 0 31 -12t13 -37q0 -26 -13 -37.5t-31 -11.5q-19 0 -32 11.5t-13 37.5q0 25 13 37t32 12zM362 700q18 0 31 -12t13 -37q0 -26 -13 -37.5t-31 -11.5t-31.5 11.5t-13.5 37.5q0 25 13.5 37t31.5 12zM497 269q0 -130 -59 -204.5
t-166 -74.5q-67 0 -117 33.5t-77.5 96t-27.5 149.5q0 133 58.5 205t165.5 72q101 0 162 -71.5t61 -205.5zM138 269q0 -98 32.5 -152.5t103.5 -54.5q69 0 102 54t33 153q0 98 -33 151t-103 53q-71 0 -103 -53t-32 -151z" />
    <glyph glyph-name="uni022C" unicode="&#x22c;" horiz-adv-x="696" 
d="M210 934v66h277v-66h-277zM191 783q5 50 27.5 80.5t64.5 30.5q27 0 50 -12.5t44 -25t39 -12.5q19 0 28 13.5t14 37.5h48q-5 -51 -27.5 -81t-64.5 -30q-25 0 -48 12.5t-44.5 25.5t-39.5 13q-19 0 -28.5 -14t-14.5 -38h-48zM640 358q0 -108 -32 -191t-96.5 -130t-162.5 -47
q-101 0 -165.5 47.5t-95.5 131t-31 190.5q0 171 72.5 268.5t219.5 97.5q98 0 162.5 -47t96.5 -129.5t32 -190.5zM149 358q0 -138 49 -214t150 -76q102 0 150.5 75.5t48.5 214.5t-48 214t-150 75t-151 -75.5t-49 -213.5z" />
    <glyph glyph-name="uni022D" unicode="&#x22d;" horiz-adv-x="546" 
d="M135 757v66h277v-66h-277zM116 605q5 51 27.5 81t64.5 30q26 0 49.5 -12.5t44.5 -25t39 -12.5q19 0 27.5 14t14.5 37h48q-5 -50 -27.5 -80.5t-64.5 -30.5q-25 0 -48.5 12.5t-44.5 25.5t-39 13q-19 0 -28.5 -14t-14.5 -38h-48zM497 269q0 -130 -59 -204.5t-166 -74.5
q-67 0 -117 33.5t-77.5 96t-27.5 149.5q0 133 58.5 205t165.5 72q101 0 162 -71.5t61 -205.5zM138 269q0 -98 32.5 -152.5t103.5 -54.5q69 0 102 54t33 153q0 98 -33 151t-103 53q-71 0 -103 -53t-32 -151z" />
    <glyph glyph-name="uni022E" unicode="&#x22e;" horiz-adv-x="696" 
d="M640 358q0 -108 -32 -191t-96.5 -130t-162.5 -47q-101 0 -165.5 47.5t-95.5 131t-31 190.5q0 171 72.5 268.5t219.5 97.5q98 0 162.5 -47t96.5 -129.5t32 -190.5zM149 358q0 -138 49 -214t150 -76q102 0 150.5 75.5t48.5 214.5t-48 214t-150 75t-151 -75.5t-49 -213.5z
M350 916q21 0 35 -14t14 -43q0 -28 -14 -42t-35 -14q-22 0 -36.5 14t-14.5 42q0 29 14 43t37 14z" />
    <glyph glyph-name="uni022F" unicode="&#x22f;" horiz-adv-x="546" 
d="M497 269q0 -130 -59 -204.5t-166 -74.5q-67 0 -117 33.5t-77.5 96t-27.5 149.5q0 133 58.5 205t165.5 72q101 0 162 -71.5t61 -205.5zM138 269q0 -98 32.5 -152.5t103.5 -54.5q69 0 102 54t33 153q0 98 -33 151t-103 53q-71 0 -103 -53t-32 -151zM275 738q21 0 35 -14
t14 -43q0 -28 -14 -42t-35 -14q-22 0 -36.5 14t-14.5 42q0 29 14 43t37 14z" />
    <glyph glyph-name="uni0230" unicode="&#x230;" horiz-adv-x="696" 
d="M488 996v-66h-282v66h282zM349 882q20 0 34 -13.5t14 -41.5q0 -27 -14 -41t-34 -14q-22 0 -35.5 13.5t-13.5 41.5t13.5 41.5t35.5 13.5zM640 358q0 -108 -32 -191t-96.5 -130t-162.5 -47q-101 0 -165.5 47.5t-95.5 131t-31 190.5q0 171 72.5 268.5t219.5 97.5
q98 0 162.5 -47t96.5 -129.5t32 -190.5zM149 358q0 -138 49 -214t150 -76q102 0 150.5 75.5t48.5 214.5t-48 214t-150 75t-151 -75.5t-49 -213.5z" />
    <glyph glyph-name="uni0231" unicode="&#x231;" horiz-adv-x="546" 
d="M411 826v-67h-276v67h276zM273 716q19 0 33 -13.5t14 -41.5q0 -27 -14 -40.5t-33 -13.5q-21 0 -34.5 13.5t-13.5 40.5q0 28 13.5 41.5t34.5 13.5zM497 269q0 -130 -59 -204.5t-166 -74.5q-67 0 -117 33.5t-77.5 96t-27.5 149.5q0 133 58.5 205t165.5 72q101 0 162 -71.5
t61 -205.5zM138 269q0 -98 32.5 -152.5t103.5 -54.5q69 0 102 54t33 153q0 98 -33 151t-103 53q-71 0 -103 -53t-32 -151z" />
    <glyph glyph-name="uni0232" unicode="&#x232;" horiz-adv-x="502" 
d="M251 369l158 345h93l-207 -437v-277h-88v274l-207 440h94zM389 855v-68h-277v68h277z" />
    <glyph glyph-name="uni0233" unicode="&#x233;" horiz-adv-x="459" 
d="M2 536h90l101 -304q11 -36 21 -70.5t16 -66.5h4q5 25 15 62t23 75l95 304h90l-204 -613q-26 -78 -66.5 -120.5t-109.5 -42.5q-20 0 -36 2.5t-29 5.5v71q10 -3 24 -5t28 -2q39 0 63 24.5t40 73.5l24 70zM367 677v-68h-277v68h277z" />
    <glyph glyph-name="uni0234" unicode="&#x234;" horiz-adv-x="361" 
d="M6 -5q17 48 35 85.5t38 65.5q-1 12 -1 25.5v27.5v563h85v-548q28 13 64 12q59 -1 90 -33.5t31 -81.5q0 -52 -33 -86.5t-93 -34.5q-43 0 -72.5 16.5t-44.5 44.5q-9 -17 -17 -38t-16 -45zM222 56q25 0 37.5 16t12.5 37q0 23 -14 36.5t-38 14.5q-30 1 -57 -23
q2 -39 15.5 -60t43.5 -21z" />
    <glyph glyph-name="uni0235" unicode="&#x235;" horiz-adv-x="682" 
d="M327 -2q18 48 35.5 85t37.5 64q-1 10 -1 22v23v153q0 128 -100 128q-76 0 -106 -48.5t-30 -146.5v-278h-85v536h68l12 -73h5q23 42 63.5 62.5t86.5 20.5q85 0 128 -46t43 -145v-139q29 12 64 12q59 0 90 -34.5t31 -84.5q0 -55 -33 -87t-93 -32q-43 0 -72.5 16.5
t-45.5 44.5q-8 -17 -16 -37t-15 -43zM543 56q27 0 38.5 16t11.5 37q0 26 -14 39.5t-38 13.5q-31 0 -57 -24q2 -40 15.5 -61t43.5 -21z" />
    <glyph glyph-name="uni0236" unicode="&#x236;" horiz-adv-x="366" 
d="M11 -2q18 48 35.5 85t37.5 64v28v29v264h-67v43l69 30l30 118h53v-123h131v-68h-131v-252q29 12 64 12q59 0 89.5 -34.5t30.5 -84.5q0 -55 -32.5 -87t-92.5 -32q-44 0 -73 16.5t-46 44.5q-8 -16 -16 -36.5t-15 -43.5zM228 56q26 0 37.5 16t11.5 37q0 26 -13.5 39.5
t-37.5 13.5q-31 0 -57 -24q2 -40 15 -61t44 -21z" />
    <glyph glyph-name="uni0237" unicode="&#x237;" horiz-adv-x="241" 
d="M27 -240q-21 0 -38 3t-29 8v71q13 -4 26.5 -6.5t28.5 -2.5q29 0 46 18.5t17 64.5v620h85v-617q0 -76 -33 -117.5t-103 -41.5z" />
    <glyph glyph-name="uni0238" unicode="&#x238;" horiz-adv-x="878" 
d="M266 -10q-108 0 -162 73.5t-54 204.5q0 136 53 207t144 71q53 0 89.5 -22t59.5 -57h5q-1 16 -3 41t-2 53v199h86v-197q0 -27 -1.5 -53t-3.5 -45h5q22 37 58.5 58.5t89.5 21.5q91 0 144.5 -69.5t53.5 -207.5q0 -130 -55 -204t-163 -74q-124 0 -172 122q-24 -62 -68 -92
t-104 -30zM267 62q65 0 97.5 54.5t32.5 153.5q0 103 -30 153t-105 50q-63 0 -93.5 -55t-30.5 -152q0 -99 31.5 -151.5t97.5 -52.5zM613 62q126 0 126 207q0 204 -125 204q-77 0 -104.5 -52.5t-27.5 -150.5q0 -103 31.5 -155.5t99.5 -52.5z" />
    <glyph glyph-name="uni0239" unicode="&#x239;" horiz-adv-x="878" 
d="M611 546q109 0 163 -73.5t54 -204.5q0 -136 -53.5 -207t-143.5 -71q-53 0 -89.5 22t-59.5 57h-5q1 -16 3 -41t2 -52v-210h-86v207q0 27 1.5 53t2.5 45h-4q-22 -36 -58.5 -58t-90.5 -22q-91 0 -144 70t-53 207q0 130 55 204t163 74q123 0 171 -122q25 62 68.5 92t103.5 30
zM265 474q-127 0 -127 -207q0 -203 126 -203q77 0 104.5 52t27.5 150q0 104 -32 156t-99 52zM611 474q-65 0 -97.5 -54t-32.5 -154q0 -102 30 -152.5t105 -50.5q63 0 93 55t30 152q0 99 -31 151.5t-97 52.5z" />
    <glyph glyph-name="uni023A" unicode="&#x23a;" horiz-adv-x="570" 
d="M478 0l-74 222h-121l-85 -297h-60l86 297h-60l-73 -222h-91l240 716h88l21 -60l29 104h60l-57 -199l188 -561h-91zM187 301h59l65 223q-4 12 -9 32t-10.5 40t-8.5 33q-5 -28 -12.5 -56t-13.5 -49zM381 301l-39 125l-36 -125h75z" />
    <glyph glyph-name="uni023B" unicode="&#x23b;" horiz-adv-x="564" 
d="M489 760l-14 -51q33 -10 60 -24l-33 -75q-12 6 -23.5 11t-24.5 10l-152 -555q29 -8 62 -8q40 0 76.5 8t70.5 20v-78q-34 -14 -71.5 -21t-87.5 -7q-38 0 -71 7l-20 -72h-59l24 90q-83 37 -126 126t-43 217q0 106 34.5 188.5t102.5 130t168 47.5q29 0 57 -3l11 39h59z
M362 646q-68 0 -116 -36.5t-72.5 -102t-24.5 -150.5q0 -91 25.5 -157t75.5 -100l148 544q-18 2 -36 2z" />
    <glyph glyph-name="uni023C" unicode="&#x23c;" horiz-adv-x="431" 
d="M271 -10q-36 0 -66 8l-57 -206h-60l64 229q-48 31 -74.5 91.5t-26.5 152.5q0 142 61.5 211.5t163.5 69.5h21l59 214h59l-61 -223q28 -7 49 -18l-27 -71q-21 9 -43 15l-108 -390q22 -9 49 -9q35 0 65 8t56 21v-74q-51 -29 -124 -29zM139 266q0 -104 37 -156l100 361
q-137 0 -137 -205z" />
    <glyph glyph-name="uni023D" unicode="&#x23d;" horiz-adv-x="468" 
d="M88 0v331h-78v65h78v318h88v-318h152v-65h-152v-252h270v-79h-358z" />
    <glyph glyph-name="uni023E" unicode="&#x23e;" horiz-adv-x="492" 
d="M290 0h-88v127l-81 -202h-62l143 358v353h-192v78h363l19 46h62l-18 -46h45v-78h-76l-115 -289v-347zM290 636v-132l52 132h-52z" />
    <glyph glyph-name="uni023F" unicode="&#x23f;" horiz-adv-x="428" 
d="M318 -240q-73 0 -107.5 37t-51.5 117q-9 42 -27.5 62t-44.5 29q-15 4 -24 8t-18 10v81q28 -17 68.5 -29.5t82.5 -12.5q56 0 82 21t26 57q0 31 -23.5 53t-89.5 50q-46 20 -78.5 41t-50.5 49.5t-18 71.5q0 66 50.5 103.5t132.5 37.5q43 0 81 -9t72 -26l-30 -68
q-29 14 -61 23t-66 9q-46 0 -71.5 -18t-25.5 -48q0 -34 26.5 -53.5t92.5 -48.5q44 -20 76 -40.5t49 -49t17 -70.5q0 -74 -47 -114t-131 -42q10 -15 17.5 -33t12.5 -38q11 -50 32.5 -70t57.5 -20q15 0 32 3.5t28 8.5v-69q-11 -5 -30 -9t-41 -4z" />
    <glyph glyph-name="uni0240" unicode="&#x240;" horiz-adv-x="406" 
d="M343 -240q-76 0 -113.5 38.5t-53.5 115.5q-11 47 -34 66.5t-71 19.5h-38v57l243 411h-227v68h320v-63l-240 -406q55 -9 84 -45t43 -97q11 -54 35 -73.5t61 -19.5q18 0 32 2.5t27 8.5v-70q-12 -6 -29 -9.5t-39 -3.5z" />
    <glyph glyph-name="Glottalstopcased" unicode="&#x241;" horiz-adv-x="408" 
d="M172 724q92 0 147 -49t55 -138q0 -80 -42 -148t-132 -121v-268h-87v311q169 84 169 222q0 53 -29.5 83t-86.5 30q-31 0 -67.5 -11t-64.5 -32l-32 70q34 25 78.5 38t91.5 13z" />
    <glyph glyph-name="glottalstopcased" unicode="&#x242;" horiz-adv-x="400" 
d="M172 546q92 0 142.5 -49t50.5 -137q0 -76 -39 -139t-129 -115v-106h-84v145q83 40 124 91t41 120q0 57 -29.5 87t-82.5 30q-67 0 -126 -43l-32 65q70 51 164 51z" />
    <glyph glyph-name="uni0243" unicode="&#x243;" horiz-adv-x="587" 
d="M88 0v175h-75v70h75v469h187q120 0 181.5 -41t61.5 -134q0 -65 -32 -107t-92 -53v-5q65 -12 104.5 -51.5t39.5 -118.5q0 -96 -59.5 -150t-164.5 -54h-226zM287 409q78 0 109 30.5t31 90.5q0 56 -36 82.5t-113 26.5h-102v-230h111zM300 75q79 0 112 36t33 99q0 59 -35 93
t-118 34h-116v-92h132v-70h-132v-100h124z" />
    <glyph glyph-name="uni0244" unicode="&#x244;" horiz-adv-x="654" 
d="M9 355v74h73v285h87v-285h316v285h87v-285h74v-74h-74v-113q0 -115 -61 -183.5t-186 -68.5q-119 0 -181 66.5t-62 186.5v112h-73zM169 240q0 -172 160 -172q81 0 118.5 45.5t37.5 127.5v114h-316v-115z" />
    <glyph glyph-name="uni0245" unicode="&#x245;" horiz-adv-x="551" 
d="M0 0l231 716h88l231 -716h-91l-158 524q-3 11 -8.5 31t-10.5 40.5t-8 33.5q-6 -28 -13 -56t-13 -49l-157 -524h-91z" />
    <glyph glyph-name="uni0246" unicode="&#x246;" horiz-adv-x="500" 
d="M445 0h-191l-15 -75h-57l15 75h-109v714h253l9 46h57l-9 -46h47v-78h-63l-45 -225h92v-77h-108l-51 -256h175v-78zM176 411h104l46 225h-150v-225zM176 78h37l52 256h-89v-256z" />
    <glyph glyph-name="uni0247" unicode="&#x247;" horiz-adv-x="511" 
d="M105 -45l-55 33l54 86q-53 72 -53 190q0 134 57 208t156 74q66 0 113 -35l39 62l55 -33l-48 -77q41 -63 41 -157v-54h-173l-98 -157q37 -32 97 -32q43 0 78 9t73 28v-75q-37 -18 -73.5 -26.5t-83.5 -8.5q-79 0 -133 38zM263 476q-55 0 -86.5 -40t-37.5 -116h118l80 127
q-28 29 -74 29zM377 320q0 33 -6 60l-38 -60h44zM138 252q1 -57 16 -98l61 98h-77z" />
    <glyph glyph-name="uni0248" unicode="&#x248;" horiz-adv-x="255" 
d="M3 -191q-42 0 -70 12v76q14 -5 30.5 -7.5t35.5 -2.5q36 0 60.5 25t24.5 93v311h-75v74h75v324h88v-324h74v-74h-74v-309q0 -104 -45.5 -151t-123.5 -47z" />
    <glyph glyph-name="uni0249" unicode="&#x249;" horiz-adv-x="241" 
d="M71 681q0 29 14 43t37 14q21 0 35 -14t14 -43q0 -28 -14 -42t-35 -14q-22 0 -36.5 14t-14.5 42zM27 -240q-21 0 -37.5 3t-29.5 8v71q13 -4 26.5 -6.5t28.5 -2.5q29 0 46 18.5t17 65.5v328h-71v69h71v222h85v-222h70v-69h-70v-326q0 -77 -33 -118t-103 -41z" />
    <glyph glyph-name="uni024A" unicode="&#x24a;" horiz-adv-x="690" 
d="M321 724q67 0 116 -27t74 -75h5l15 92h71v-794q0 -46 16 -64.5t47 -18.5q13 0 25 3t21 7v-74q-10 -6 -25 -9.5t-34 -3.5q-67 0 -102.5 37t-35.5 118v99q0 41 4 80h-6q-25 -47 -73.5 -75.5t-120.5 -28.5q-82 0 -140.5 45.5t-89.5 128t-31 194.5t31 194t90.5 127t142.5 45z
M328 646q-86 0 -133 -77.5t-47 -211.5q0 -135 47.5 -212t133.5 -77q105 0 145 59t40 168v129q0 70 -17 119.5t-57.5 76t-111.5 26.5z" />
    <glyph glyph-name="uni024B" unicode="&#x24b;" horiz-adv-x="559" 
d="M248 546q54 0 89.5 -22t58.5 -60h5l11 72h70v-609q0 -55 14 -74.5t40 -19.5q16 0 29.5 3t22.5 7v-69q-24 -14 -70 -14q-55 0 -88.5 37t-33.5 127v62q0 18 1 41.5t4 45.5h-5q-23 -37 -60 -60t-91 -23q-89 0 -142 69.5t-53 207.5t54.5 208.5t143.5 70.5zM262 474
q-63 0 -93.5 -55.5t-30.5 -153.5q0 -99 31 -151t95 -52q70 0 101 46t32 139v20q0 104 -30.5 155.5t-104.5 51.5z" />
    <glyph glyph-name="uni024C" unicode="&#x24c;" horiz-adv-x="563" 
d="M259 714q125 0 184 -50.5t59 -151.5q0 -80 -37.5 -125t-92.5 -67l177 -320h-101l-156 296h-116v-296h-88v296h-80v74h80v344h171zM256 637h-80v-267h87q149 0 149 138q0 69 -38 99t-118 30z" />
    <glyph glyph-name="uni024D" unicode="&#x24d;" horiz-adv-x="373" 
d="M280 314v-68h-117v-246h-85v246h-70v68h70v222h68l11 -95h4q23 45 58.5 75t83.5 30q14 0 29 -1.5t28 -4.5l-11 -82q-24 7 -52 7q-49 0 -87 -41.5t-45 -109.5h115z" />
    <glyph glyph-name="uni024E" unicode="&#x24e;" horiz-adv-x="502" 
d="M494 585v-70h-86l-113 -238v-277h-88v274l-113 241h-86v70h53l-61 129h94l59 -129h197l59 129h93l-61 -129h53zM251 369l67 146h-133z" />
    <glyph glyph-name="uni024F" unicode="&#x24f;" horiz-adv-x="459" 
d="M2 536h90l58 -176h161l56 176h90l-59 -176h53v-64h-74l-124 -373q-26 -78 -66.5 -120.5t-109.5 -42.5q-20 0 -36 2.5t-29 5.5v71q10 -3 24 -5t28 -2q39 0 63 24.5t40 73.5l24 70l-104 296h-79v64h56zM230 95h4q5 25 15 62t23 75l19 64h-119l21 -64q11 -36 21 -70.5
t16 -66.5z" />
    <glyph glyph-name="uni0250" unicode="&#x250;" horiz-adv-x="508" 
d="M247 -9q-89 0 -131 45t-42 136v364h64l15 -75h3q30 44 65.5 64.5t93.5 20.5q69 0 110 -42t41 -117q0 -80 -56.5 -124t-170.5 -47l-80 -3v-33q0 -65 24.5 -92.5t71.5 -27.5q35 0 68.5 11t64.5 27l27 -64q-34 -19 -77 -31t-91 -12zM226 276q84 3 118 31t34 80
q0 47 -23.5 68.5t-62.5 21.5q-58 0 -95.5 -39t-37.5 -115v-50z" />
    <glyph glyph-name="uni0251" unicode="&#x251;" horiz-adv-x="559" 
d="M246 -10q-90 0 -143 69.5t-53 207.5t54 208.5t144 70.5q53 0 88.5 -21.5t59.5 -57.5h4l12 69h70v-414q0 -32 10.5 -46.5t28.5 -14.5q8 0 16 1.5t14 3.5v-64q-7 -5 -22 -8.5t-29 -3.5q-40 0 -64 18.5t-35 64.5h-4q-23 -38 -59.5 -60.5t-91.5 -22.5zM263 62q72 0 103 46.5
t31 139.5v19q0 103 -30 155t-105 52q-63 0 -93.5 -55.5t-30.5 -153.5q0 -203 125 -203z" />
    <glyph glyph-name="uni0252" unicode="&#x252;" horiz-adv-x="559" 
d="M313 546q90 0 143 -69.5t53 -206.5q0 -139 -54 -209.5t-144 -70.5q-53 0 -88.5 21.5t-59.5 58.5h-4l-12 -70h-70v414q0 33 -10.5 47t-28.5 14q-8 0 -16.5 -1.5t-13.5 -3.5v65q7 4 22 7.5t29 3.5q40 0 64 -18.5t35 -64.5h4q23 39 59.5 61t91.5 22zM296 474
q-72 0 -103 -46.5t-31 -139.5v-19q0 -102 30 -154t105 -52q63 0 93.5 55t30.5 153q0 203 -125 203z" />
    <glyph glyph-name="uni0253" unicode="&#x253;" horiz-adv-x="559" 
d="M198 765q17 0 34 -3.5t27 -8.5v-72q-8 3 -21 6t-26 3q-25 0 -37 -14t-12 -49v-67q0 -27 -1.5 -52t-2.5 -43h4q23 37 59 58.5t90 21.5q91 0 144 -69.5t53 -207.5q0 -136 -53 -207t-143 -71q-54 0 -90.5 21.5t-59.5 56.5h-6l-15 -68h-64v625q0 68 30.5 104t89.5 36z
M295 473q-76 0 -104 -52t-28 -151q0 -104 29 -156t105 -52q124 0 124 207q0 204 -126 204z" />
    <glyph glyph-name="uni0254" unicode="&#x254;" horiz-adv-x="431" 
d="M167 546q100 0 157 -65t57 -204q0 -96 -29.5 -160t-80.5 -95.5t-118 -31.5q-38 0 -66.5 7.5t-51.5 20.5v75q25 -13 54.5 -21t64.5 -8q70 0 104.5 53.5t34.5 154.5q0 200 -136 200q-24 0 -52.5 -6.5t-50.5 -17.5l-25 70q23 12 60 20t78 8z" />
    <glyph glyph-name="uni0255" unicode="&#x255;" horiz-adv-x="468" 
d="M280 546q37 0 70.5 -7.5t56.5 -19.5l-27 -71q-22 9 -48.5 16t-50.5 7q-138 0 -138 -205q0 -53 9 -90q64 67 147 67q64 0 99.5 -33.5t35.5 -87.5q0 -44 -22 -73.5t-57.5 -44t-75.5 -14.5q-86 0 -139 44q-8 -17 -16 -35.5t-14 -39.5l-67 28q20 58 47 107q-35 64 -35 171
q0 142 61.5 211.5t163.5 69.5zM293 174q-29 0 -57 -15.5t-54 -52.5q34 -47 100 -47q33 0 54 18t21 44q0 22 -15 37.5t-49 15.5z" />
    <glyph glyph-name="uni0256" unicode="&#x256;" horiz-adv-x="559" 
d="M512 -240q-51 0 -83.5 33.5t-32.5 122.5v75q0 17 2 40t3 38h-5q-23 -35 -59 -57t-89 -22q-92 0 -145 70t-53 207t53 208t144 71q53 0 89.5 -22t59.5 -57h5q-1 17 -3 39.5t-2 38.5v215h86v-843q0 -50 12 -67.5t38 -17.5q17 0 32 4t23 8v-68q-12 -7 -31 -11.5t-44 -4.5z
M263 62q72 0 103 46t31 140v21q0 101 -30 153t-105 52q-63 0 -93.5 -55.5t-30.5 -152.5q0 -99 31 -151.5t94 -52.5z" />
    <glyph glyph-name="uni0257" unicode="&#x257;" horiz-adv-x="559" 
d="M247 -10q-91 0 -144 70t-53 207t53 208t144 71q53 0 89.5 -22t59.5 -57h5q-1 14 -3 36.5t-2 37.5v85q0 140 121 140q17 0 34 -3.5t27 -7.5v-73q-8 3 -21 6.5t-27 3.5q-24 0 -36 -14t-12 -50v-628h-69l-12 71h-5q-23 -36 -59 -58.5t-90 -22.5zM263 62q72 0 103 46t31 140
v21q0 101 -30 153t-105 52q-63 0 -93.5 -55.5t-30.5 -152.5q0 -99 31 -151.5t94 -52.5z" />
    <glyph glyph-name="uni0258" unicode="&#x258;" horiz-adv-x="510" 
d="M247 546q98 0 155.5 -74t57.5 -208q0 -128 -61.5 -201t-171.5 -73q-48 0 -84.5 8.5t-72.5 26.5v75q37 -19 72.5 -28t78.5 -9q148 0 152 189h-326v54q0 70 23.5 124.5t68 85t108.5 30.5zM247 476q-58 0 -85.5 -44.5t-28.5 -111.5h238q-5 76 -37 116t-87 40z" />
    <glyph glyph-name="uni0259" unicode="&#x259;" horiz-adv-x="510" 
d="M227 546q111 0 172 -73t61 -201q0 -134 -57 -208t-156 -74q-63 0 -108 30.5t-68.5 85t-23.5 125.5v53h326q-4 189 -152 189q-42 0 -78 -9t-73 -27v74q36 18 73 26.5t84 8.5zM134 217q0 -68 27.5 -112.5t86.5 -44.5q55 0 86.5 40.5t37.5 116.5h-238z" />
    <glyph glyph-name="uni025A" unicode="&#x25a;" horiz-adv-x="704" 
d="M247 -10q-95 0 -147.5 66t-52.5 185l321 95q-21 137 -147 137q-42 0 -78 -9t-73 -27v74q36 18 73 26.5t84 8.5q90 0 148 -49t76 -137l93 27l14 -57q12 -46 25 -64t34 -18q18 0 35 6.5t33 16.5l19 -58q-21 -15 -47 -25t-53 -10q-40 0 -68 28.5t-46 95.5l-31 -8
q0 -91 -21.5 -159.5t-68 -106.5t-122.5 -38zM248 60q41 0 66 19t37.5 50t17 68t4.5 72l-238 -70q4 -59 31 -99t82 -40z" />
    <glyph glyph-name="uni025B" unicode="&#x25b;" horiz-adv-x="435" 
d="M318 315v-70h-59q-131 0 -131 -94q0 -48 34.5 -68.5t86.5 -20.5q45 0 83.5 11.5t68.5 27.5v-75q-29 -17 -67.5 -26.5t-92.5 -9.5q-102 0 -150.5 44.5t-48.5 112.5q0 57 31.5 88t78.5 44v5q-42 14 -66.5 44.5t-24.5 77.5q0 66 51.5 103t133.5 37q47 0 84.5 -9.5
t73.5 -27.5l-32 -67q-29 15 -58.5 23.5t-66.5 8.5q-104 0 -104 -74q0 -45 34.5 -65t95.5 -20h45z" />
    <glyph glyph-name="uni025C" unicode="&#x25c;" horiz-adv-x="439" 
d="M200 546q82 0 130.5 -36.5t48.5 -103.5q0 -46 -25 -76.5t-67 -42.5v-4q46 -13 77.5 -44.5t31.5 -89.5q0 -69 -50.5 -114t-152.5 -45q-104 0 -163 35v78q31 -16 71 -29t88 -13q53 0 87.5 22t34.5 71q0 91 -132 91h-58v70h48q58 0 92.5 20t34.5 64q0 38 -27 57t-76 19
q-35 0 -64 -8t-62 -23l-31 66q38 19 79 27.5t85 8.5z" />
    <glyph glyph-name="uni025D" unicode="&#x25d;" horiz-adv-x="622" 
d="M200 546q68 0 113.5 -25.5t59.5 -73.5l89 27l15 -56q11 -47 24.5 -64.5t33.5 -17.5q18 0 35 6.5t33 16.5l19 -58q-20 -15 -46 -25t-54 -10q-40 0 -68 28.5t-46 95.5l-32 -9q-6 -36 -29.5 -60t-59.5 -34v-4q46 -13 77.5 -44.5t31.5 -89.5q0 -69 -50.5 -114t-152.5 -45
q-104 0 -163 35v78q31 -16 71 -29t88 -13q53 0 87.5 22t34.5 71q0 91 -132 91h-58v70h48q58 0 92.5 20t34.5 64q0 38 -27 57t-76 19q-35 0 -64 -8t-62 -23l-31 66q38 19 79 27.5t85 8.5z" />
    <glyph glyph-name="uni025E" unicode="&#x25e;" horiz-adv-x="546" 
d="M299 546q91 0 139 -39t48 -103q0 -50 -25 -78.5t-68 -41.5v-4q44 -9 77.5 -39.5t33.5 -88.5q0 -69 -53.5 -115.5t-159.5 -46.5q-121 0 -181 73.5t-60 203.5q0 134 63.5 206.5t185.5 72.5zM297 474q-81 0 -120 -52t-39 -155q0 -205 161 -205q53 0 86.5 23.5t33.5 70.5
q0 87 -130 87h-37v69h26q57 0 91.5 18.5t34.5 64.5q0 34 -24.5 56.5t-82.5 22.5z" />
    <glyph glyph-name="uni025F" unicode="&#x25f;" horiz-adv-x="241" 
d="M27 -240q-21 0 -37.5 3t-29.5 8v71q13 -4 26.5 -6.5t28.5 -2.5q29 0 46 18.5t17 65.5v334h-71v67h71v218h85v-218h70v-67h-70v-332q0 -77 -33 -118t-103 -41z" />
    <glyph glyph-name="uni0260" unicode="&#x260;" horiz-adv-x="559" 
d="M517 766q18 0 34.5 -3.5t26.5 -7.5v-73q-8 3 -21 6.5t-27 3.5q-24 0 -36.5 -14t-12.5 -50v-636q0 -114 -55 -173t-171 -59q-100 0 -169 33v79q75 -39 171 -39q66 0 102.5 37t36.5 111v19q0 14 1.5 38.5t2.5 33.5h-4q-51 -82 -150 -82q-93 0 -144.5 72t-51.5 205
q0 132 52 205.5t145 73.5q47 0 84.5 -19.5t64.5 -61.5h5q-1 17 -3 39.5t-2 40.5v81q0 140 121 140zM260 473q-60 0 -91 -53.5t-31 -153.5q0 -204 125 -204q69 0 101.5 44.5t32.5 139.5v22q0 109 -33 157t-104 48z" />
    <glyph glyph-name="uni0261" unicode="&#x261;" horiz-adv-x="559" 
d="M247 546q47 0 84.5 -19.5t64.5 -61.5h5l11 71h70v-544q0 -114 -55 -173t-172 -59q-100 0 -169 33v79q75 -39 172 -39q66 0 102.5 37t36.5 111v19q0 14 1 36t2 36h-4q-50 -82 -149 -82q-93 0 -145 72t-52 205q0 132 52.5 205.5t144.5 73.5zM261 473q-60 0 -91.5 -53.5
t-31.5 -153.5q0 -204 125 -204q69 0 101.5 44.5t32.5 139.5v22q0 109 -32.5 157t-103.5 48z" />
    <glyph glyph-name="uni0262" unicode="&#x262;" horiz-adv-x="515" 
d="M293 546q95 0 153 -32l-30 -72q-28 14 -57.5 21.5t-57.5 7.5q-163 0 -163 -205q0 -99 35.5 -150.5t103.5 -51.5q27 0 47 2.5t42 8.5v150h-97v69h182v-270q-40 -16 -82.5 -25t-89.5 -9q-104 0 -166.5 67t-62.5 208q0 95 31.5 157.5t86.5 93t125 30.5z" />
    <glyph glyph-name="uni0263" unicode="&#x263;" horiz-adv-x="457" 
d="M228 -239q-50 0 -79.5 35t-29.5 90q0 49 17.5 97.5t43.5 101.5l-179 451h92l88 -241q7 -20 16.5 -47t17.5 -53.5t12 -46.5h3q5 19 13 45.5t17.5 53.5t17.5 48l87 241h91l-179 -454q28 -56 43.5 -105t15.5 -91q0 -54 -29.5 -89.5t-78.5 -35.5zM227 -170q15 0 24.5 13.5
t9.5 43.5q0 24 -8 57.5t-26 70.5q-17 -37 -25 -70.5t-8 -55.5q0 -31 9.5 -45t23.5 -14z" />
    <glyph glyph-name="uni0264" unicode="&#x264;" horiz-adv-x="472" 
d="M426 546q25 0 44 -9v-69q-6 2 -13.5 4t-14.5 2q-14 0 -26 -9.5t-30 -37.5l-102 -166q32 -47 47 -82t15 -76q0 -51 -29.5 -81.5t-81.5 -30.5q-51 0 -80 30t-29 83q0 41 15 76.5t46 80.5l-106 169q-15 24 -27 33.5t-26 10.5q-9 1 -15 -1t-11 -4v66q8 5 19.5 8t25.5 3
q30 0 50 -15t43 -51l53 -88q13 -22 23.5 -41t17.5 -35h4q7 15 18.5 35t23.5 41l53 89q20 34 40.5 49.5t52.5 15.5zM236 207q-16 -26 -25 -50t-9 -47q0 -26 10 -38.5t24 -12.5t23.5 12.5t9.5 39.5q0 25 -9.5 49t-23.5 47z" />
    <glyph glyph-name="uni0265" unicode="&#x265;" horiz-adv-x="559" 
d="M396 -4q0 42 5 77h-6q-22 -40 -62 -61t-86 -21q-87 0 -130 46.5t-43 144.5v354h85v-344q0 -66 24.5 -97t76.5 -31q76 0 106 49t30 146v277h85v-760h-85v220z" />
    <glyph glyph-name="uni0266" unicode="&#x266;" horiz-adv-x="559" 
d="M78 625q0 68 31 104t90 36q17 0 33.5 -3.5t26.5 -8.5v-72q-8 3 -21 6t-26 3q-25 0 -37 -13.5t-12 -48.5v-95q0 -37 -5 -70h6q21 41 61 62t87 21q87 0 129.5 -47t42.5 -144v-355h-85v345q0 65 -24 96.5t-77 31.5q-76 0 -105.5 -49.5t-29.5 -145.5v-278h-85v625z" />
    <glyph glyph-name="uni0267" unicode="&#x267;" horiz-adv-x="559" 
d="M199 765q17 0 33.5 -3.5t26.5 -8.5v-72q-8 3 -21 6t-26 3q-25 0 -37 -13.5t-12 -48.5v-95q0 -37 -5 -70h6q21 41 61 62t87 21q87 0 129.5 -47t42.5 -144v-456q0 -139 -113 -139q-19 0 -37 4.5t-30 9.5v72q7 -4 21.5 -7.5t29.5 -3.5q22 0 33 13.5t11 46.5v450
q0 65 -24 96.5t-77 31.5q-76 0 -105.5 -49.5t-29.5 -145.5v-278h-85v625q0 68 31 104t90 36z" />
    <glyph glyph-name="uni0268" unicode="&#x268;" horiz-adv-x="241" 
d="M122 738q21 0 35 -14t14 -43q0 -28 -14 -42t-35 -14q-22 0 -36.5 14t-14.5 42q0 29 14 43t37 14zM233 318v-67h-70v-251h-85v251h-70v67h70v218h85v-218h70z" />
    <glyph glyph-name="uni0269" unicode="&#x269;" horiz-adv-x="298" 
d="M212 -10q-70 0 -103 41t-33 118v387h85v-389q0 -47 17 -65.5t46 -18.5q15 0 28.5 2.5t25.5 6.5v-71q-12 -5 -28.5 -8t-37.5 -3z" />
    <glyph glyph-name="iotaserifed" unicode="&#x26a;" horiz-adv-x="306" 
d="M270 536v-51l-75 -16v-403l75 -15v-51h-234v51l74 15v403l-74 16v51h234z" />
    <glyph glyph-name="uni026B" unicode="&#x26b;" horiz-adv-x="357" 
d="M136 370q-9 5 -17 8t-15 3q-21 0 -32 -15t-17 -44h-52q6 57 31 91.5t70 34.5q15 0 32 -6v318h85v-359q9 -4 17.5 -7.5t16.5 -3.5q21 0 31.5 15.5t16.5 43.5h51q-5 -61 -31.5 -93.5t-68.5 -32.5q-8 0 -16.5 2t-16.5 5v-330h-85v370z" />
    <glyph glyph-name="uni026C" unicode="&#x26c;" horiz-adv-x="338" 
d="M144 0v299h-38q-60 0 -88 28.5t-28 74.5q0 39 23.5 69t76.5 30q34 0 54 -21v280h86v-393h99v-68h-99v-299h-86zM110 367h34v10q0 24 -10 41t-36 17q-19 0 -27 -9.5t-8 -23.5q0 -19 13 -27t34 -8z" />
    <glyph glyph-name="uni026D" unicode="&#x26d;" horiz-adv-x="240" 
d="M210 -240q-61 0 -96.5 33.5t-35.5 122.5v844h84v-843q0 -43 15 -64t49 -21q15 0 32.5 3.5t28.5 8.5v-68q-14 -7 -33.5 -11.5t-43.5 -4.5z" />
    <glyph glyph-name="uni026E" unicode="&#x26e;" horiz-adv-x="589" 
d="M312 -240q-54 0 -93.5 9.5t-66.5 23.5v80q29 -15 69.5 -27.5t91.5 -12.5q73 0 115 45t42 124q0 81 -48 118.5t-131 37.5h-49v61l192 245h-271v-464h-85v760h85v-224h370v-61l-194 -248q99 -7 158 -61.5t59 -161.5q0 -72 -29.5 -127t-84 -86t-130.5 -31z" />
    <glyph glyph-name="uni026F" unicode="&#x26f;" horiz-adv-x="842" 
d="M235 -10q-81 0 -121 46.5t-40 146.5v353h85v-345q0 -128 94 -128q67 0 95.5 45.5t28.5 131.5v296h85v-346q0 -65 23 -96t71 -31q71 0 97 52t26 142v279h86v-536h-69l-12 73h-5q-21 -42 -59 -62.5t-83 -20.5q-111 0 -144 89h-5q-24 -46 -63.5 -67.5t-89.5 -21.5z" />
    <glyph glyph-name="uni0270" unicode="&#x270;" horiz-adv-x="842" 
d="M679 -4q0 16 2 39t4 38h-6q-22 -42 -59 -62.5t-82 -20.5q-111 0 -145 89h-5q-24 -46 -64 -67.5t-89 -21.5q-81 0 -121 46.5t-40 146.5v353h85v-345q0 -127 94 -127q67 0 95.5 45t28.5 131v296h85v-346q0 -65 23 -95.5t71 -30.5q71 0 97 51t26 142v279h86v-776h-86v236z
" />
    <glyph glyph-name="uni0271" unicode="&#x271;" horiz-adv-x="842" 
d="M607 546q81 0 121 -46.5t40 -146.5v-454q0 -139 -113 -139q-19 0 -37.5 4.5t-30.5 9.5v72q7 -4 22 -7.5t30 -3.5q22 0 33 13.5t11 46.5v450q0 128 -94 128q-66 0 -95 -45.5t-29 -131.5v-296h-84v346q0 65 -23.5 96t-71.5 31q-71 0 -97 -51.5t-26 -142.5v-279h-85v536h68
l12 -73h5q21 42 58.5 62.5t82.5 20.5q111 0 145 -88h5q24 45 64 66.5t89 21.5z" />
    <glyph glyph-name="uni0272" unicode="&#x272;" horiz-adv-x="559" 
d="M313 546q85 0 128 -46t43 -145v-355h-84v345q0 128 -101 128q-76 0 -106 -48.5t-30 -146.5v-362q0 -89 -33.5 -122.5t-86.5 -33.5q-21 0 -39.5 4.5t-31.5 11.5v68q8 -4 23.5 -8t28.5 -4q27 0 40.5 17t13.5 68v619h68l12 -73h5q23 42 63.5 62.5t86.5 20.5z" />
    <glyph glyph-name="uni0273" unicode="&#x273;" horiz-adv-x="559" 
d="M484 -83q0 -51 13 -68t40 -17q14 0 29.5 4t23.5 8v-68q-13 -7 -32 -11.5t-39 -4.5q-53 0 -86.5 33.5t-33.5 122.5v429q0 128 -100 128q-76 0 -106 -48.5t-30 -146.5v-278h-85v536h68l12 -73h5q23 42 63.5 62.5t86.5 20.5q85 0 128 -46t43 -145v-438z" />
    <glyph glyph-name="uni0274" unicode="&#x274;" horiz-adv-x="574" 
d="M78 0v536h102l241 -428q-2 26 -4 62.5t-2 59.5v306h81v-536h-102l-239 427q1 -16 2 -40t1.5 -48.5t0.5 -41.5v-297h-81z" />
    <glyph glyph-name="uni0275" unicode="&#x275;" horiz-adv-x="549" 
d="M500 269q0 -133 -60.5 -206t-166.5 -73q-66 0 -116 32.5t-78.5 95t-28.5 151.5q0 134 60 205.5t166 71.5q69 0 119 -34t77.5 -96.5t27.5 -146.5zM274 473q-64 0 -97 -41t-38 -121h272q-6 78 -39.5 120t-97.5 42zM275 62q66 0 99 45.5t37 133.5h-273q3 -87 36.5 -133
t100.5 -46z" />
    <glyph glyph-name="uni0276" unicode="&#x276;" horiz-adv-x="761" 
d="M268 546q87 0 139 -65v55h307v-70h-230v-150h216v-72h-216v-173h230v-71h-307v56q-52 -66 -141 -66q-64 0 -113 33.5t-76 96t-27 149.5q0 133 57.5 205t160.5 72zM270 473q-61 0 -96.5 -53t-35.5 -151t32 -152.5t101 -54.5q68 0 100.5 54t32.5 153q0 98 -32.5 151
t-101.5 53z" />
    <glyph glyph-name="uni0277" unicode="&#x277;" horiz-adv-x="700" 
d="M353 546q142 0 218.5 -83t76.5 -228q0 -114 -44 -179.5t-126 -65.5q-97 0 -126 90h-4q-29 -90 -127 -90q-81 0 -124.5 65.5t-43.5 179.5q0 94 33.5 164t100.5 108.5t166 38.5zM352 473q-104 0 -159 -63.5t-55 -174.5q0 -86 24 -128.5t66 -42.5t61.5 37t19.5 100v114h82
v-114q0 -137 80 -137q42 0 66.5 42.5t24.5 128.5q0 109 -52 173.5t-158 64.5z" />
    <glyph glyph-name="uni0278" unicode="&#x278;" horiz-adv-x="662" 
d="M373 544q112 -11 175.5 -85t63.5 -191q0 -118 -62 -191.5t-177 -84.5v-232h-83v232q-110 10 -175 82t-65 194q0 120 62 193t179 83v216h82v-216zM291 472q-78 -8 -115.5 -60.5t-37.5 -143.5q0 -87 37 -141.5t116 -62.5v408zM373 64q79 8 115.5 63.5t36.5 140.5
q0 90 -38.5 142.5t-113.5 60.5v-407z" />
    <glyph glyph-name="uni0279" unicode="&#x279;" horiz-adv-x="373" 
d="M70 -10q-14 0 -29 1.5t-28 4.5l11 82q24 -7 52 -7q36 0 67 23t49 64t18 95v283h85v-536h-68l-11 96h-4q-23 -45 -58.5 -75.5t-83.5 -30.5z" />
    <glyph glyph-name="uni027A" unicode="&#x27a;" horiz-adv-x="373" 
d="M70 -10q-14 0 -29 1.5t-28 4.5l11 82q24 -7 52 -7q36 0 66.5 23t49 64t18.5 94v508h85v-760h-69l-10 96h-4q-23 -46 -58.5 -76t-83.5 -30z" />
    <glyph glyph-name="uni027B" unicode="&#x27b;" horiz-adv-x="373" 
d="M325 -240q-50 0 -82.5 33.5t-32.5 122.5v96q0 18 2 42.5t4 41.5h-4q-23 -46 -58.5 -76t-83.5 -30q-14 0 -29 1.5t-28 4.5l11 82q24 -7 52 -7q36 0 66.5 23t49 64t18.5 94v284h85v-619q0 -51 12.5 -68t38.5 -17q17 0 32 4t23 8v-68q-12 -7 -31.5 -11.5t-44.5 -4.5z" />
    <glyph glyph-name="uni027C" unicode="&#x27c;" horiz-adv-x="373" 
d="M303 546q14 0 29 -1.5t28 -4.5l-11 -82q-24 7 -52 7q-36 0 -66.5 -23t-49 -64t-18.5 -94v-524h-85v776h68l11 -95h4q23 45 58.5 75t83.5 30z" />
    <glyph glyph-name="uni027D" unicode="&#x27d;" horiz-adv-x="373" 
d="M303 546q14 0 29 -1.5t28 -4.5l-11 -82q-24 7 -52 7q-36 0 -66.5 -23t-49 -64t-18.5 -94v-367q0 -44 14.5 -64.5t48.5 -20.5q15 0 30.5 3.5t26.5 8.5v-68q-15 -7 -32 -11.5t-41 -4.5q-61 0 -96.5 33.5t-35.5 122.5v620h68l11 -95h4q23 45 58.5 75t83.5 30z" />
    <glyph glyph-name="uni027E" unicode="&#x27e;" horiz-adv-x="328" 
d="M239 546q18 0 38.5 -3.5t36.5 -8.5l-12 -76q-11 4 -27 8t-37 4q-41 0 -59 -26t-18 -87v-357h-85v361q0 102 41 143.5t122 41.5z" />
    <glyph glyph-name="uni027F" unicode="&#x27f;" horiz-adv-x="328" 
d="M89 546q81 0 122 -41.5t41 -143.5v-601h-85v597q0 61 -18 87t-59 26q-21 0 -37 -4t-27 -8l-12 76q16 5 36.5 8.5t38.5 3.5z" />
    <glyph glyph-name="uni0280" unicode="&#x280;" horiz-adv-x="494" 
d="M78 0v536h200q82 0 129 -40.5t47 -117.5q0 -65 -32.5 -101.5t-76.5 -50.5l135 -226h-97l-121 214h-99v-214h-85zM258 284q52 0 82 22t30 71q0 41 -23 65t-76 24h-108v-182h95z" />
    <glyph glyph-name="uni0281" unicode="&#x281;" horiz-adv-x="494" 
d="M78 536h85v-214h99l121 214h97l-135 -226q44 -14 76.5 -50.5t32.5 -101.5q0 -76 -47 -117t-129 -41h-200v536zM258 252h-95v-182h108q53 0 76 24t23 65q0 50 -30 71.5t-82 21.5z" />
    <glyph glyph-name="uni0282" unicode="&#x282;" horiz-adv-x="428" 
d="M387 147q0 -77 -51 -117t-140 -40q-39 0 -70 6v-50q0 -75 60 -75q14 0 27.5 3t23.5 6v-67q-12 -5 -28.5 -9t-38.5 -4q-55 0 -90 29t-35 107v168q28 -17 68.5 -29.5t82.5 -12.5q56 0 82 21t26 57q0 31 -23.5 53t-89.5 50q-46 20 -78.5 41t-50.5 49.5t-18 71.5
q0 66 50.5 103.5t132.5 37.5q43 0 81 -9t72 -26l-30 -68q-29 14 -61 23t-66 9q-46 0 -71.5 -18t-25.5 -48q0 -34 26.5 -53.5t92.5 -48.5q44 -20 76 -40.5t49 -49t17 -70.5z" />
    <glyph glyph-name="uni0283" unicode="&#x283;" horiz-adv-x="240" 
d="M205 765q19 0 36.5 -4t27.5 -9v-69q-9 3 -22.5 6.5t-25.5 3.5q-30 0 -44 -17.5t-14 -69.5v-690q0 -89 -33.5 -122.5t-86.5 -33.5q-21 0 -39.5 4.5t-31.5 11.5v68q8 -4 23.5 -8t28.5 -4q27 0 40.5 17t13.5 68v691q0 59 16.5 93.5t45.5 49t65 14.5z" />
    <glyph glyph-name="uni0284" unicode="&#x284;" horiz-adv-x="240" 
d="M43 -240q-21 0 -39.5 4.5t-31.5 11.5v68q8 -4 23.5 -8t28.5 -4q27 0 40.5 17t13.5 68v334h-70v67h70v290q0 59 16.5 93.5t45.5 49t65 14.5q19 0 36.5 -4t27.5 -9v-69q-9 3 -22.5 6.5t-25.5 3.5q-30 0 -44 -17.5t-14 -69.5v-288h70v-67h-70v-335q0 -89 -33.5 -122.5
t-86.5 -33.5z" />
    <glyph glyph-name="uni0285" unicode="&#x285;" horiz-adv-x="248" 
d="M207 -240q-53 0 -87 33.5t-34 122.5v476q0 45 -13 63.5t-40 18.5q-11 0 -23 -3t-21 -7v69q22 13 61 13q52 0 86.5 -33.5t34.5 -117.5v-478q0 -51 14 -68t41 -17q13 0 28 3.5t25 8.5v-68q-13 -7 -32 -11.5t-40 -4.5z" />
    <glyph glyph-name="uni0286" unicode="&#x286;" horiz-adv-x="243" 
d="M29 -240q-61 0 -94.5 31.5t-33.5 83.5q0 53 33.5 84.5t104.5 31.5h39v617q0 59 17 93.5t46 49t65 14.5q19 0 36.5 -4t27.5 -9v-69q-9 3 -22.5 6.5t-25.5 3.5q-30 0 -44 -17.5t-14 -69.5v-615h69v-67h-69q-2 -91 -39 -127.5t-96 -36.5zM21 -175q58 0 58 87v12h-38
q-28 0 -47 -11t-19 -39q0 -20 10 -34.5t36 -14.5z" />
    <glyph glyph-name="uni0287" unicode="&#x287;" horiz-adv-x="324" 
d="M84 474q-17 0 -34.5 -3t-30.5 -7v66q34 16 85 16q59 0 98 -34.5t39 -122.5v-321h66v-43l-68 -30l-31 -117h-53v122h-131v68h131v316q0 90 -71 90z" />
    <glyph glyph-name="uni0288" unicode="&#x288;" horiz-adv-x="324" 
d="M239 -168q17 0 35 3t31 8v-67q-34 -16 -85 -16q-59 0 -98 34.5t-39 123.5v550h-67v43l69 30l30 118h53v-123h131v-68h-131v-545q0 -91 71 -91z" />
    <glyph glyph-name="uni0289" unicode="&#x289;" horiz-adv-x="559" 
d="M8 254v67h65v215h86v-215h237v215h85v-215h70v-67h-70v-254h-69l-12 71h-5q-23 -41 -63 -61t-87 -20q-88 0 -130 49t-42 147v68h-65zM159 195q0 -132 100 -132q77 0 106.5 48.5t29.5 142.5h-236v-59z" />
    <glyph glyph-name="uni028A" unicode="&#x28a;" horiz-adv-x="552" 
d="M274 -10q-67 0 -116.5 31t-77 88.5t-27.5 136.5q0 74 22.5 127.5t64.5 90.5h-112v72h215v-66q-45 -19 -73.5 -76t-28.5 -149q0 -83 32 -133t103 -50q70 0 102.5 50t32.5 133q0 87 -29.5 147t-72.5 78v66h214v-72h-111q87 -79 87 -218q0 -118 -59 -187t-166 -69z" />
    <glyph glyph-name="uni028B" unicode="&#x28b;" horiz-adv-x="562" 
d="M357 546q63 0 97.5 -33t34.5 -122v-175q0 -110 -49 -168t-158 -58q-111 0 -159.5 56.5t-48.5 169.5v320h86v-315q0 -87 29.5 -122.5t92.5 -35.5t92.5 36t29.5 122v168q0 48 -13.5 65t-44.5 17q-29 0 -52 -8v73q30 10 63 10z" />
    <glyph glyph-name="uni028C" unicode="&#x28c;" horiz-adv-x="457" 
d="M278 536l178 -536h-90l-99 317q-10 32 -20.5 70t-14.5 66h-4q-4 -22 -15 -59t-21 -69l-101 -325h-90l180 536h97z" />
    <glyph glyph-name="uni028D" unicode="&#x28d;" horiz-adv-x="720" 
d="M329 225q10 -36 17.5 -72t12.5 -61h3q4 25 11.5 61t18.5 73l85 310h97l135 -537h-87l-67 280q-10 42 -18.5 86t-13.5 78h-4q-5 -29 -13.5 -71.5t-18.5 -81.5l-81 -291h-94l-78 292q-9 32 -18.5 72.5t-14.5 78.5h-4q-2 -23 -10.5 -61.5t-18.5 -80.5l-72 -301h-86l138 537
h100z" />
    <glyph glyph-name="uni028E" unicode="&#x28e;" horiz-adv-x="459" 
d="M457 0h-91l-100 305q-12 36 -21.5 70t-15.5 67h-4q-5 -26 -15.5 -62.5t-22.5 -75.5l-95 -304h-91l205 613q26 78 66.5 120.5t109.5 42.5q20 0 36 -2t29 -6v-70q-11 2 -24.5 4t-27.5 2q-40 0 -63.5 -24.5t-39.5 -73.5l-24 -69z" />
    </font>
</defs>
</svg>
