<?xml version="1.0" standalone="no"?>
<!DOCTYPE svg PUBLIC "-//W3C//DTD SVG 1.1//EN" "http://www.w3.org/Graphics/SVG/1.1/DTD/svg11.dtd" >
<svg xmlns="http://www.w3.org/2000/svg" xmlns:xlink="http://www.w3.org/1999/xlink" version="1.1">
<metadata>
Created by FontForge 20230101 at Mon Jan  1 11:29:07 2024
 By andreas
Original: Copyright 2022 The Noto Project Authors (https://github.com/notofonts/latin-greek-cyrillic)
Modifications: Copyright 2024 Schweizerisches Idiotikon.
</metadata>
<defs>
<font id="NossikonSans-Italic" horiz-adv-x="0" >
  <font-face 
    font-family="Nossikon Sans"
    font-weight="400"
    font-style="italic"
    font-stretch="normal"
    units-per-em="1000"
    panose-1="2 11 5 2 4 5 4 9 2 4"
    ascent="800"
    descent="-200"
    x-height="536"
    cap-height="714"
    bbox="-665 -389 2767 1084"
    underline-thickness="50"
    underline-position="-125"
    slope="-12"
    unicode-range="U+000D-1DF1E"
  />
<missing-glyph horiz-adv-x="600" 
d="M94 0v714h411v-714h-411zM145 51h309v612h-309v-612z" />
    <glyph glyph-name="f_f" unicode="ff" horiz-adv-x="638" 
d="M-48 -240q-19 0 -35 3t-29 7v74q14 -4 27 -7.5t29 -3.5q30 0 52.5 25t35.5 89l110 522h-93l7 37l100 33l11 48q16 69 39.5 107.5t58.5 54.5t84 16q25 0 51.5 -5.5t42.5 -13.5l-23 -67q-14 5 -30.5 9.5t-36.5 4.5q-39 0 -61.5 -22t-36.5 -84l-12 -51h231l12 52
q16 68 39.5 106.5t58.5 54.5t84 16q26 0 52.5 -5.5t42.5 -13.5l-24 -67q-14 5 -30.5 9.5t-35.5 4.5q-40 0 -62.5 -22t-36.5 -84l-12 -51h116l-14 -67h-115l-112 -532q-18 -83 -55.5 -130t-110.5 -47q-38 0 -63 10v74q12 -4 26 -7.5t30 -3.5q30 0 52 25.5t35 88.5l110 522
h-231l-112 -532q-18 -83 -56 -130t-110 -47z" />
    <glyph glyph-name="fi" unicode="fi" horiz-adv-x="576" 
d="M-48 -240q-19 0 -35 3t-29 7v74q14 -4 27 -7.5t29 -3.5q36 0 56 29.5t32 84.5l110 522h-93l7 37l100 33l11 48q16 69 39.5 107.5t58.5 54.5t84 16q25 0 51.5 -5.5t42.5 -13.5l-23 -67q-14 5 -30.5 9.5t-36.5 4.5q-39 0 -61.5 -22t-36.5 -84l-12 -51h115l-13 -67h-115
l-112 -532q-18 -83 -56 -130t-110 -47zM531 625q-21 0 -34.5 12.5t-13.5 34.5q0 26 15.5 45t43.5 19q46 0 46 -45q0 -31 -18 -48.5t-39 -17.5zM346 0l114 536h88l-114 -536h-88z" />
    <glyph glyph-name="fl" unicode="fl" horiz-adv-x="576" 
d="M-48 -240q-19 0 -35 3t-29 7v74q14 -4 27 -7.5t29 -3.5q36 0 56 29.5t32 84.5l110 522h-93l7 37l100 33l11 48q16 69 39.5 107.5t58.5 54.5t84 16q25 0 51.5 -5.5t42.5 -13.5l-23 -67q-14 5 -30.5 9.5t-36.5 4.5q-39 0 -61.5 -22t-36.5 -84l-12 -51h115l-13 -67h-115
l-112 -532q-18 -83 -56 -130t-110 -47zM345 0l162 760h88l-162 -760h-88z" />
    <glyph glyph-name="f_f_i" unicode="ffi" horiz-adv-x="896" 
d="M-48 -240q-19 0 -35 3t-29 7v74q14 -4 27 -7.5t29 -3.5q30 0 52.5 25t35.5 89l110 522h-93l7 37l100 33l11 48q16 69 39.5 107.5t58.5 54.5t84 16q25 0 51.5 -5.5t42.5 -13.5l-23 -67q-14 5 -30.5 9.5t-36.5 4.5q-39 0 -61.5 -22t-36.5 -84l-12 -51h231l12 52
q16 68 39.5 106.5t58.5 54.5t84 16q26 0 52.5 -5.5t42.5 -13.5l-24 -67q-14 5 -30.5 9.5t-35.5 4.5q-40 0 -62.5 -22t-36.5 -84l-12 -51h116l-14 -67h-115l-112 -532q-18 -83 -55.5 -130t-110.5 -47q-38 0 -63 10v74q12 -4 26 -7.5t30 -3.5q30 0 52 25.5t35 88.5l110 522
h-231l-112 -532q-18 -83 -56 -130t-110 -47zM851 625q-19 0 -33 12.5t-14 34.5q0 26 15.5 45t43.5 19q45 0 45 -45q0 -31 -18 -48.5t-39 -17.5zM666 0l115 536h88l-115 -536h-88z" />
    <glyph glyph-name="f_f_l" unicode="ffl" horiz-adv-x="896" 
d="M-48 -240q-19 0 -35 3t-29 7v74q14 -4 27 -7.5t29 -3.5q30 0 52.5 25t35.5 89l110 522h-93l7 37l100 33l11 48q16 69 39.5 107.5t58.5 54.5t84 16q25 0 51.5 -5.5t42.5 -13.5l-23 -67q-14 5 -30.5 9.5t-36.5 4.5q-39 0 -61.5 -22t-36.5 -84l-12 -51h231l12 52
q16 68 39.5 106.5t58.5 54.5t84 16q26 0 52.5 -5.5t42.5 -13.5l-24 -67q-14 5 -30.5 9.5t-35.5 4.5q-40 0 -62.5 -22t-36.5 -84l-12 -51h116l-14 -67h-115l-112 -532q-18 -83 -55.5 -130t-110.5 -47q-38 0 -63 10v74q12 -4 26 -7.5t30 -3.5q30 0 52 25.5t35 88.5l110 522
h-231l-112 -532q-18 -83 -56 -130t-110 -47zM666 0l161 760h88l-162 -760h-87z" />
    <glyph glyph-name="j_uni0334" unicode="j&#x334;" horiz-adv-x="258" 
d="M-54 192q14 62 43 95t72 33q18 0 34 -5l47 221h87l-56 -264q14 -7 26 -7q22 0 34 13t24 43h53q-16 -62 -45 -95t-72 -33q-18 0 -35 7l-59 -277q-16 -75 -52.5 -119t-110.5 -44q-37 0 -62 10v74q12 -4 27 -7.5t31 -3.5q61 0 82 98l66 312q-13 5 -26 5q-21 0 -33 -14
t-23 -42h-52zM212 625q-20 0 -33.5 12.5t-13.5 34.5q0 26 15.5 45t43.5 19q45 0 45 -45q0 -31 -18 -48.5t-39 -17.5z" />
    <glyph glyph-name="uni0307_uni0307" unicode="&#x307;&#x307;" 
d="M184 751q-18 0 -30 11t-12 31q0 23 14 40t39 17q20 0 30 -11t10 -29q0 -28 -16 -43.5t-35 -15.5zM5 631q-19 0 -31 11t-12 31q0 23 14 40t39 17q21 0 30.5 -11t9.5 -29q0 -28 -15.5 -43.5t-34.5 -15.5z" />
    <glyph glyph-name="uni1D43_uni1D49" unicode="&#x1d43;&#x1d49;" horiz-adv-x="558" 
d="M161 281q-37 0 -60.5 28t-23.5 81q0 46 12.5 86.5t35 71.5t53 49t65.5 18q31 0 50 -17t29 -39h4l21 50h36l-9 -42q17 21 43 34.5t61 13.5t61 -18.5t26 -56.5q0 -32 -21 -57.5t-66 -41t-116 -15.5h-13q-1 -5 -1 -11v-11q0 -37 19.5 -58t60.5 -21q23 0 45.5 7t48.5 17v-46
q-26 -11 -51.5 -16.5t-53.5 -5.5q-34 0 -59.5 11.5t-39.5 34.5l-9 -40h-38l8 59h-3q-26 -29 -52.5 -47t-62.5 -18zM363 469q39 0 72 6.5t53 20.5t20 38q0 20 -12 28.5t-29 8.5q-35 0 -65 -27t-45 -75h6zM180 325q23 0 45.5 16t41 43.5t28.5 62.5q5 17 6.5 31.5t1.5 27.5
q0 28 -13.5 46t-38.5 18q-24 0 -45 -14.5t-37 -40t-24.5 -57.5t-8.5 -68q0 -33 11.5 -49t32.5 -16z" />
    <glyph glyph-name="uni1D43_uni0308" unicode="&#x1d43;&#x308;" horiz-adv-x="369" 
d="M350.104 665.585q-11.7002 0 -19.501 6.59961t-7.80078 18.5986q0 13.7998 9.10059 23.999q9.10059 10.2002 25.3516 10.2002q13 0 19.5 -6.59961q6.50098 -6.59961 6.50098 -17.3994q0 -16.7998 -10.4004 -26.0996q-10.4004 -9.29883 -22.751 -9.29883zM233.75 665.585
q-12.3506 0 -20.1504 6.59961q-7.80078 6.59961 -7.80078 18.5986q0 13.7998 9.10059 23.999q9.10059 10.2002 25.3506 10.2002q13.6504 0 19.8262 -6.59961q6.1748 -6.59961 6.1748 -17.3994q0 -16.7998 -10.0752 -26.0996q-10.0752 -9.29883 -22.4258 -9.29883zM178 281
q-41 0 -67.5 28t-26.5 82q0 45 12.5 85.5t35.5 71.5t54.5 49t68.5 18q34 0 55.5 -17t32.5 -39h3l21 50h44l-75 -322h-45l8 59h-2q-23 -26 -52.5 -45.5t-66.5 -19.5zM197 325q24 0 47.5 16t42 43.5t28.5 62.5q5 17 6.5 31.5t1.5 27.5q0 28 -16.5 46t-45.5 18
q-25 0 -46.5 -14.5t-38 -40t-25 -58t-8.5 -67.5q0 -33 14 -49t40 -16z" />
    <glyph glyph-name="uni1D52_uni0308" unicode="&#x1d52;&#x308;" horiz-adv-x="366" 
d="M337.104 665.585q-11.7002 0 -19.501 6.59961t-7.80078 18.5986q0 13.7998 9.10059 23.999q9.10059 10.2002 25.3516 10.2002q13 0 19.5 -6.59961q6.50098 -6.59961 6.50098 -17.3994q0 -16.7998 -10.4004 -26.0996q-10.4004 -9.29883 -22.751 -9.29883zM220.75 665.585
q-12.3506 0 -20.1504 6.59961q-7.80078 6.59961 -7.80078 18.5986q0 13.7998 9.10059 23.999q9.10059 10.2002 25.3506 10.2002q13.6504 0 19.8262 -6.59961q6.1748 -6.59961 6.1748 -17.3994q0 -16.7998 -10.0752 -26.0996q-10.0752 -9.29883 -22.4258 -9.29883zM214 282
q-60 0 -95 33.5t-35 90.5q0 37 11 73.5t33 66.5t54.5 48.5t75.5 18.5q61 0 95.5 -33.5t34.5 -90.5q0 -37 -10.5 -73.5t-32.5 -66.5t-54.5 -48.5t-76.5 -18.5zM217 326q31 0 56.5 20t41 58t15.5 91q0 17 -7 34.5t-22.5 28.5t-41.5 11q-36 0 -62.5 -22.5t-40.5 -60t-14 -82.5
q0 -37 19.5 -57.5t55.5 -20.5z" />
    <glyph glyph-name="uni1D58_uni0308" unicode="&#x1d58;&#x308;" horiz-adv-x="376" 
d="M354.104 665.585q-11.7002 0 -19.501 6.59961t-7.80078 18.5986q0 13.7998 9.10059 23.999q9.10059 10.2002 25.3516 10.2002q13 0 19.5 -6.59961q6.50098 -6.59961 6.50098 -17.3994q0 -16.7998 -10.4004 -26.0996q-10.4004 -9.29883 -22.751 -9.29883zM237.75 665.585
q-12.3506 0 -20.1504 6.59961q-7.80078 6.59961 -7.80078 18.5986q0 13.7998 9.10059 23.999q9.10059 10.2002 25.3506 10.2002q13.6504 0 19.8262 -6.59961q6.1748 -6.59961 6.1748 -17.3994q0 -16.7998 -10.0752 -26.0996q-10.0752 -9.29883 -22.4258 -9.29883zM176 281
q-40 0 -63.5 20.5t-23.5 59.5q0 13 2 25.5t5 25.5l45 197h58l-47 -203q-5 -26 -5 -40q0 -19 10.5 -30t34.5 -11q22 0 47.5 14t48 46t34.5 85l32 139h57l-75 -322h-46l7 59h-3q-13 -14 -29.5 -29.5t-38.5 -25.5t-50 -10z" />
    <glyph glyph-name="uni1D58_uni032F" unicode="&#x1d58;&#x32f;" horiz-adv-x="376" 
d="M88.6943 175.404q11.0508 43.1982 38.0264 61.7979q26.9766 18.5986 67.9277 18.5986q35.1016 0 57.8525 -17.0986q22.751 -17.0996 22.751 -50.0986v-6.29883q0 -3.30078 -0.650391 -6.90039h-33.8008q0 17.3994 -11.7012 26.999q-11.7002 9.59961 -40.3008 9.59961
q-29.9014 0 -44.5273 -9.89941q-14.625 -9.89941 -19.8252 -26.6992h-35.752zM176 281q-40 0 -63.5 20.5t-23.5 59.5q0 13 2 25.5t5 25.5l45 197h58l-47 -203q-5 -26 -5 -40q0 -19 10.5 -30t34.5 -11q22 0 47.5 14t48 46t34.5 85l32 139h57l-75 -322h-46l7 59h-3
q-13 -14 -29.5 -29.5t-38.5 -25.5t-50 -10z" />
    <glyph glyph-name="uni2071_uni032F" unicode="&#x2071;&#x32f;" horiz-adv-x="223" 
d="M-0.305664 175.404q11.0508 43.1982 38.0264 61.7979q26.9766 18.5986 67.9277 18.5986q35.1016 0 57.8525 -17.0986q22.751 -17.0996 22.751 -50.0986v-6.29883q0 -3.30078 -0.650391 -6.90039h-33.8008q0 17.3994 -11.7012 26.999q-11.7002 9.59961 -40.3008 9.59961
q-29.9014 0 -44.5273 -9.89941q-14.625 -9.89941 -19.8252 -26.6992h-35.752zM201 662q-13 0 -22 7.5t-9 20.5q0 16 10 27.5t29 11.5q30 0 30 -27q0 -19 -12 -29.5t-26 -10.5zM81 287l74 322h58l-75 -322h-57z" />
    <glyph glyph-name="uni0313_acutecomb" unicode="&#x313;&#x301;" 
d="M-156 606l-40 22q17 11 28.5 26.5t11.5 32.5q0 22 -13 29t-27 7q-10 0 -17 -2t-11 -4v56q5 2 16.5 5.5t28.5 3.5q44 0 69.5 -17.5t25.5 -58.5q0 -35 -21.5 -59t-50.5 -41zM-85 609l2 12l82 158h106l-2 -10l-129 -160h-59z" />
    <glyph glyph-name=".notdef" horiz-adv-x="600" 
d="M94 0v714h411v-714h-411zM145 51h309v612h-309v-612z" />
    <glyph glyph-name=".null" 
 />
    <glyph glyph-name="nonmarkingreturn" horiz-adv-x="333" 
 />
    <glyph glyph-name="NULL" 
 />
    <glyph glyph-name="CR" unicode="&#xd;" horiz-adv-x="260" 
 />
    <glyph glyph-name="space" unicode=" " horiz-adv-x="260" 
 />
    <glyph glyph-name="exclam" unicode="!" horiz-adv-x="261" 
d="M77 201l91 513h107l-127 -513h-71zM73 -14q-53 0 -53 54q0 32 18 56.5t57 24.5q23 0 37 -14t14 -40q0 -29 -17.5 -55t-55.5 -26z" />
    <glyph glyph-name="quotedbl" unicode="&#x22;" horiz-adv-x="392" 
d="M281 456l35 258h96l-75 -258h-56zM109 456l35 258h96l-75 -258h-56z" />
    <glyph glyph-name="numbersign" unicode="#" horiz-adv-x="646" 
d="M97 0l59 209h-126l6 66h139l48 162h-134l6 65h146l60 212h72l-61 -212h144l62 212h68l-60 -212h128l-7 -65h-141l-47 -162h138l-6 -66h-151l-60 -209h-72l63 209h-144l-61 -209h-69zM246 275h144l45 162h-143z" />
    <glyph glyph-name="dollar" unicode="$" horiz-adv-x="551" 
d="M190 50q-41 2 -83 11.5t-73 24.5v80q39 -20 85 -31.5t85 -12.5l47 215q-61 23 -96.5 57.5t-35.5 97.5q0 57 26.5 95t72.5 59.5t103 26.5l19 85h65l-18 -86q38 -3 73 -12t65 -25l-33 -71q-23 13 -54 23.5t-66 12.5l-45 -209q68 -25 102.5 -58.5t34.5 -92.5
q0 -58 -28 -97.5t-75 -62t-106 -29.5l-24 -109h-65zM306 600q-47 -5 -76.5 -31t-29.5 -75q0 -25 16.5 -46t50.5 -34zM270 125q46 6 78 33.5t32 74.5q0 26 -15.5 46t-53.5 35z" />
    <glyph glyph-name="percent" unicode="%" horiz-adv-x="799" 
d="M195 276q-55 0 -85 37.5t-30 107.5q0 29 5 68t17.5 80t34 76.5t54.5 57t79 21.5q57 0 87 -35.5t30 -101.5q0 -27 -5.5 -66.5t-18.5 -82t-35.5 -79.5t-55 -60t-77.5 -23zM113 0l530 714h78l-530 -714h-78zM202 342q26 0 45.5 19.5t32.5 50t20.5 63.5t11 62t3.5 44
q0 41 -13 59.5t-38 18.5q-26 0 -45 -18t-32 -46t-20.5 -60.5t-11 -62.5t-3.5 -50q0 -80 50 -80zM562 -10q-55 0 -85 37t-30 107q0 30 5 69.5t17.5 80.5t34.5 76t54.5 56.5t78.5 21.5q58 0 88 -35.5t30 -100.5q0 -27 -6 -66.5t-19 -82t-35 -80t-55 -60.5t-78 -23zM569 56
q26 0 45.5 19.5t32.5 50t20.5 64t11 62t3.5 43.5q0 41 -13 59.5t-38 18.5q-26 0 -45 -18t-31.5 -46t-20 -60.5t-11 -62.5t-3.5 -50q0 -80 49 -80z" />
    <glyph glyph-name="ampersand" unicode="&#x26;" horiz-adv-x="673" 
d="M216 -10q-81 0 -132.5 45.5t-51.5 132.5q0 80 49.5 132.5t140.5 95.5q-19 32 -34 69.5t-15 79.5q0 51 22.5 91.5t65.5 64.5t104 24q73 0 116 -38.5t43 -104.5q0 -50 -26.5 -86t-70.5 -63.5t-97 -54.5l132 -184q33 29 56 66.5t39 77.5h88q-25 -61 -60 -112t-79 -93
l99 -133h-104l-55 78q-47 -38 -100 -63t-130 -25zM295 433q32 16 65 35.5t56 45.5t23 61t-20 57t-58 22q-49 0 -76.5 -29t-27.5 -80q0 -59 38 -112zM233 63q53 0 93.5 21.5t77.5 51.5l-145 206q-36 -19 -68 -41t-52 -52.5t-20 -74.5q0 -51 32 -81t82 -30z" />
    <glyph glyph-name="quotesingle" unicode="'" horiz-adv-x="220" 
d="M109 456l35 258h96l-75 -258h-56z" />
    <glyph glyph-name="parenleft" unicode="(" horiz-adv-x="290" 
d="M112 -158q-34 61 -53 135t-19 156q0 179 64 319.5t182 261.5h81q-71 -78 -126 -168.5t-86 -193t-31 -218.5q0 -87 14.5 -158.5t41.5 -133.5h-68z" />
    <glyph glyph-name="parenright" unicode=")" horiz-adv-x="290" 
d="M-77 -158q71 79 125.5 169t85.5 193t31 218q0 86 -14 158.5t-41 133.5h68q34 -61 52.5 -135t18.5 -157q0 -178 -63.5 -318.5t-182.5 -261.5h-80z" />
    <glyph glyph-name="asterisk" unicode="*" horiz-adv-x="551" 
d="M372 300l-54 195l-123 -165l-61 61l149 137l-180 53l28 78l180 -89l20 193l87 -17l-59 -186l204 10l-4 -82l-190 23l87 -185z" />
    <glyph glyph-name="plus" unicode="+" horiz-adv-x="572" 
d="M341 388h199v-71h-199v-206h-72v206h-199v71h199v207h72v-207z" />
    <glyph glyph-name="comma" unicode="," horiz-adv-x="256" 
d="M-43 -129q26 59 53 126t46 119h96l4 -11q-25 -53 -61 -116t-71 -118h-67z" />
    <glyph glyph-name="hyphen" unicode="-" horiz-adv-x="313" 
d="M26 227l18 81h236l-18 -81h-236z" />
    <glyph glyph-name="period" unicode="." horiz-adv-x="256" 
d="M72 -14q-52 0 -52 52q0 33 18.5 58t58.5 25q22 0 35.5 -13.5t13.5 -39.5q0 -31 -18 -56.5t-56 -25.5z" />
    <glyph glyph-name="slash" unicode="/" horiz-adv-x="356" 
d="M-46 0l397 714h90l-396 -714h-91z" />
    <glyph glyph-name="zero" unicode="0" horiz-adv-x="551" 
d="M236 -10q-88 0 -133.5 63t-45.5 180q0 59 10 126t31.5 131.5t56.5 117.5t84.5 85t114.5 32q92 0 136 -59.5t44 -170.5q0 -72 -11 -144t-33.5 -137t-57.5 -115.5t-84 -79.5t-112 -29zM246 65q40 0 71.5 26t55 70.5t39.5 100.5t24 116.5t8 118.5q0 74 -23.5 113.5
t-71.5 39.5q-38 0 -70 -25.5t-56.5 -69t-41.5 -97.5t-26 -112.5t-9 -112.5q0 -81 24 -124.5t76 -43.5z" />
    <glyph glyph-name="one" unicode="1" horiz-adv-x="551" 
d="M297 442q10 47 21.5 95t20.5 77q-15 -16 -31 -28t-36 -25l-88 -55l-41 66l224 142h77l-153 -714h-89z" />
    <glyph glyph-name="two" unicode="2" horiz-adv-x="551" 
d="M3 0l16 75l227 205q66 60 108 102t62 80t20 85q0 45 -27.5 73.5t-78.5 28.5q-44 0 -81 -18t-72 -44l-42 60q41 33 91 55t114 22q91 0 139.5 -45.5t48.5 -117.5q0 -58 -22 -105.5t-71.5 -100.5t-132.5 -125l-168 -146v-4h326l-15 -80h-442z" />
    <glyph glyph-name="three" unicode="3" horiz-adv-x="551" 
d="M210 -10q-58 0 -103.5 10.5t-84.5 28.5v85q35 -19 86 -34.5t103 -15.5q80 0 123 38.5t43 103.5q0 62 -37.5 94t-106.5 32h-64l15 73h65q50 0 92.5 17.5t68 51.5t25.5 81q0 46 -28.5 70.5t-73.5 24.5q-46 0 -84 -16t-76 -42l-41 62q41 30 91.5 50t117.5 20q90 0 137 -43.5
t47 -114.5q0 -76 -49 -129t-136 -69v-4q57 -10 93.5 -49.5t36.5 -104.5q0 -56 -27 -106.5t-84 -82t-149 -31.5z" />
    <glyph glyph-name="four" unicode="4" horiz-adv-x="551" 
d="M288 0l35 162h-317l15 80l403 472h101l-99 -474h110l-17 -78h-111l-35 -162h-85zM111 240h229l36 171q8 37 18.5 77.5t21 76.5t16.5 59h-4q-8 -13 -21 -31t-25.5 -35t-21.5 -27z" />
    <glyph glyph-name="five" unicode="5" horiz-adv-x="551" 
d="M200 -10q-97 0 -163 39v85q36 -22 77.5 -36t85.5 -14q70 0 113 24t62.5 63.5t19.5 85.5q0 62 -36 96t-98 34q-30 0 -56 -5t-58 -13l-37 29l97 336h329l-17 -80h-253l-60 -207q18 4 39 7t48 3q89 0 141.5 -50.5t52.5 -138.5q0 -45 -14.5 -90.5t-47 -83.5t-88 -61
t-137.5 -23z" />
    <glyph glyph-name="six" unicode="6" horiz-adv-x="551" 
d="M251 -10q-84 0 -136 53.5t-52 165.5q0 70 16 148.5t50 151t87 123.5q43 44 102 68t136 24q54 0 92 -11l-18 -76q-16 5 -36.5 8.5t-47.5 3.5q-95 0 -167.5 -66t-107.5 -217h4q29 38 71 60.5t94 22.5q74 0 118 -47t44 -133q0 -50 -15 -99.5t-45.5 -90t-77.5 -65t-111 -24.5
zM260 64q49 0 83 28t52 73.5t18 95.5q0 56 -26 86.5t-79 30.5q-36 0 -66 -16t-50.5 -39t-29.5 -44q-7 -16 -9.5 -36t-2.5 -40q0 -36 11 -67.5t35 -51.5t64 -20z" />
    <glyph glyph-name="seven" unicode="7" horiz-adv-x="551" 
d="M81 0l373 636h-347l16 78h439l-13 -70l-373 -644h-95z" />
    <glyph glyph-name="eight" unicode="8" horiz-adv-x="551" 
d="M246 -10q-69 0 -113.5 24.5t-66 65t-21.5 89.5q0 77 50 129t139 86q-38 28 -61.5 63t-23.5 90q0 59 28 101t76.5 64.5t107.5 22.5q66 0 106 -22.5t58 -58.5t18 -77q0 -53 -23.5 -89.5t-61.5 -61.5t-82 -44q52 -31 82.5 -72.5t30.5 -106.5q0 -53 -25.5 -99.5t-79.5 -75
t-138 -28.5zM315 412q68 26 103.5 59.5t35.5 86.5q0 43 -27 68t-73 25q-53 0 -85.5 -30.5t-32.5 -83.5q0 -45 22 -74t57 -51zM255 63q50 0 82 18.5t47 48t15 61.5q0 48 -25 84t-78 64q-45 -14 -81.5 -34.5t-57.5 -52t-21 -78.5q0 -52 33.5 -81.5t85.5 -29.5z" />
    <glyph glyph-name="nine" unicode="9" horiz-adv-x="551" 
d="M165 -10q-30 0 -61 4.5t-57 12.5v81q27 -9 56.5 -15.5t63.5 -6.5q100 0 159.5 69t89.5 208h-5q-25 -35 -64.5 -56.5t-87.5 -21.5q-82 0 -127 49t-45 140q0 72 30 133.5t86 99t133 37.5q88 0 137 -55.5t49 -164.5q0 -52 -9 -110.5t-26 -116t-41.5 -107.5t-56.5 -85
q-46 -51 -102.5 -73t-121.5 -22zM277 336q47 0 85 25t59 71q14 34 14 84q0 59 -27 96.5t-77 37.5t-85 -26t-53.5 -69.5t-18.5 -96.5q0 -58 26 -90t77 -32z" />
    <glyph glyph-name="colon" unicode=":" horiz-adv-x="256" 
d="M151 415q-52 0 -52 51q0 34 18.5 59t58.5 25q22 0 35.5 -13t13.5 -40q0 -31 -18 -56.5t-56 -25.5zM72 -14q-52 0 -52 52q0 33 18.5 58t58.5 25q22 0 35.5 -13.5t13.5 -39.5q0 -31 -18 -56.5t-56 -25.5z" />
    <glyph glyph-name="semicolon" unicode=";" horiz-adv-x="256" 
d="M151 415q-52 0 -52 51q0 34 18.5 59t58.5 25q22 0 35.5 -13t13.5 -40q0 -31 -18 -56.5t-56 -25.5zM-49 -129q26 59 53 126t46 119h96l4 -11q-25 -53 -61 -116t-71 -118h-67z" />
    <glyph glyph-name="less" unicode="&#x3c;" horiz-adv-x="572" 
d="M541 116l-471 207v50l471 235v-78l-377 -178l377 -158v-78z" />
    <glyph glyph-name="equal" unicode="=" horiz-adv-x="572" 
d="M76 416v71h458v-71h-458zM76 217v71h458v-71h-458z" />
    <glyph glyph-name="greater" unicode="&#x3e;" horiz-adv-x="572" 
d="M70 194l377 157l-377 179v78l471 -235v-50l-471 -207v78z" />
    <glyph glyph-name="question" unicode="?" horiz-adv-x="430" 
d="M127 201q7 43 20.5 75t37 59.5t59.5 55.5q32 25 59.5 48t44.5 51t17 66q0 44 -24 68t-70 24q-38 0 -74.5 -12.5t-69.5 -28.5l-32 67q41 22 90 36t96 14q79 0 126 -39t47 -118q0 -67 -36.5 -117t-106.5 -102q-39 -28 -60.5 -48t-33 -42t-19.5 -57h-71zM129 -14
q-52 0 -52 52q0 33 18.5 58t58.5 25q22 0 35.5 -13.5t13.5 -39.5q0 -31 -18 -56.5t-56 -25.5z" />
    <glyph glyph-name="at" unicode="@" horiz-adv-x="848" 
d="M385 -91q-101 0 -175.5 40t-115.5 115.5t-41 181.5q0 91 32 175t93 149.5t147.5 104t194.5 38.5q106 0 172.5 -41.5t98 -109t31.5 -147.5q0 -89 -27.5 -159t-75.5 -110t-110 -40q-56 0 -78.5 27t-26.5 62h-4q-22 -37 -56 -63t-84 -26q-55 0 -88 36.5t-33 103.5
q0 81 34.5 142.5t92 95.5t125.5 34q48 0 80 -9t58 -20l-47 -179q-8 -30 -12 -49.5t-4 -36.5q0 -31 14 -43t34 -12q31 0 56 21t42.5 55.5t27 77t9.5 85.5q0 66 -23.5 120t-76.5 86.5t-142 32.5q-86 0 -155.5 -30.5t-119.5 -85t-77 -126.5t-27 -155q0 -127 68 -200.5
t200 -73.5q54 0 108 12.5t98 29.5v-65q-52 -21 -108 -32.5t-109 -11.5zM378 169q48 0 79.5 42.5t50.5 109.5l33 124q-10 4 -25 7.5t-35 3.5q-46 0 -84 -27t-60 -73t-22 -103q0 -44 16 -64t47 -20z" />
    <glyph glyph-name="A" unicode="A" horiz-adv-x="562" 
d="M-57 0l388 714h94l88 -714h-88l-27 222h-241l-116 -222h-98zM200 302h189l-16 150q-4 38 -7.5 84t-4.5 81h-3q-16 -38 -37 -81.5t-44 -87.5z" />
    <glyph glyph-name="B" unicode="B" horiz-adv-x="600" 
d="M41 0l151 714h185q99 0 155.5 -39t56.5 -125q0 -73 -44 -118.5t-117 -59.5v-5q49 -13 82 -49t33 -96q0 -73 -35.5 -122.5t-97 -74.5t-141.5 -25h-228zM334 410q45 0 81.5 14t58.5 42.5t22 72.5q0 47 -30 72.5t-100 25.5h-101l-48 -227h117zM272 76q85 0 131 38t46 108
q0 48 -31 81t-105 33h-112l-55 -260h126z" />
    <glyph glyph-name="C" unicode="C" horiz-adv-x="587" 
d="M326 -10q-119 0 -186.5 73t-67.5 200q0 64 15 130t45.5 125t77 105.5t108.5 73.5t140 27q100 0 174 -40l-36 -74q-27 14 -60.5 24.5t-77.5 10.5q-75 0 -129.5 -33.5t-90.5 -89t-53.5 -122.5t-17.5 -135q0 -91 46.5 -143.5t128.5 -52.5q41 0 80.5 8t77.5 21v-78
q-39 -14 -78.5 -22t-95.5 -8z" />
    <glyph glyph-name="D" unicode="D" horiz-adv-x="667" 
d="M41 0l151 714h169q129 0 202 -70t73 -215q0 -124 -48.5 -221t-142 -152.5t-228.5 -55.5h-176zM222 77q104 0 175 47t108 127t37 179q0 110 -52.5 158.5t-139.5 48.5h-85l-119 -560h76z" />
    <glyph glyph-name="E" unicode="E" horiz-adv-x="514" 
d="M41 0l151 714h362l-17 -79h-273l-47 -223h255l-15 -78h-256l-55 -255h274l-17 -79h-362z" />
    <glyph glyph-name="F" unicode="F" horiz-adv-x="477" 
d="M41 0l151 714h362l-16 -79h-274l-53 -254h256l-17 -79h-256l-64 -302h-89z" />
    <glyph glyph-name="G" unicode="G" horiz-adv-x="678" 
d="M343 -10q-127 0 -199 71t-72 198q0 98 27.5 182.5t79 148t122 99t156.5 35.5q65 0 114 -11t93 -31l-34 -78q-37 17 -80 29t-94 12q-82 0 -147.5 -49t-103.5 -134.5t-38 -196.5q0 -55 19.5 -99.5t60.5 -70.5t105 -26q38 0 69.5 5.5t53.5 12.5l46 211h-140l17 78h229
l-76 -349q-45 -16 -95 -26.5t-113 -10.5z" />
    <glyph glyph-name="H" unicode="H" horiz-adv-x="680" 
d="M42 0l151 714h89l-64 -302h314l64 302h88l-151 -714h-88l70 333h-314l-70 -333h-89z" />
    <glyph glyph-name="I" unicode="I" horiz-adv-x="324" 
d="M-20 0l10 49l85 20l122 576l-76 19l10 50h250l-10 -50l-86 -19l-122 -576l77 -20l-10 -49h-250z" />
    <glyph glyph-name="J" unicode="J" horiz-adv-x="273" 
d="M-80 -190q-50 0 -76 12l3 77q15 -4 33 -7t38 -3q44 0 78 28t47 92l150 705h89l-151 -715q-22 -101 -76.5 -145t-134.5 -44z" />
    <glyph glyph-name="K" unicode="K" horiz-adv-x="562" 
d="M41 0l151 714h89l-74 -347l62 66l274 281h108l-310 -314l169 -400h-98l-139 346l-83 -61l-60 -285h-89z" />
    <glyph glyph-name="L" unicode="L" horiz-adv-x="478" 
d="M41 0l151 714h89l-135 -634h274l-17 -80h-362z" />
    <glyph glyph-name="M" unicode="M" horiz-adv-x="841" 
d="M40 0l151 714h126l69 -583h4l317 583h137l-148 -714h-90l90 424q14 65 26.5 118t21.5 85h-2l-344 -627h-71l-76 626h-4q-2 -20 -7 -53.5t-11.5 -71t-13.5 -72.5l-91 -429h-84z" />
    <glyph glyph-name="N" unicode="N" horiz-adv-x="707" 
d="M40 0l151 714h95l219 -590h3q5 36 14.5 91.5t20.5 105.5l84 393h85l-151 -714h-95l-221 592h-3q-2 -21 -7.5 -55t-13 -73t-15.5 -76l-82 -388h-84z" />
    <glyph glyph-name="O" unicode="O" horiz-adv-x="721" 
d="M337 -10q-128 0 -196.5 74.5t-68.5 202.5q0 92 24.5 175t71.5 146.5t114 100t151 36.5q122 0 189.5 -75t67.5 -206q0 -93 -22.5 -175t-67 -144.5t-110.5 -98.5t-153 -36zM340 69q60 0 107 30t80 82.5t50.5 120.5t17.5 144q0 95 -45 147.5t-123 52.5q-60 0 -108 -29.5
t-82 -81t-52 -120t-18 -146.5q0 -94 46 -147t127 -53z" />
    <glyph glyph-name="P" unicode="P" horiz-adv-x="567" 
d="M41 0l151 714h161q116 0 165 -51.5t49 -134.5q0 -121 -80 -185t-234 -64h-64l-59 -279h-89zM267 354q96 0 152.5 41.5t56.5 129.5q0 59 -33.5 85.5t-101.5 26.5h-76l-60 -283h62z" />
    <glyph glyph-name="Q" unicode="Q" horiz-adv-x="721" 
d="M353 -9q-4 -1 -8 -1h-8q-128 0 -196.5 74.5t-68.5 202.5q0 92 24.5 175t71.5 146.5t114 100t151 36.5q122 0 189.5 -75t67.5 -206q0 -103 -29 -192.5t-84.5 -153.5t-135.5 -91l134 -177h-114zM340 69q61 0 108.5 30t80 82.5t49.5 120.5t17 144q0 95 -45 147.5t-123 52.5
q-60 0 -108 -29.5t-82 -81t-52 -120t-18 -146.5q0 -94 46 -147t127 -53z" />
    <glyph glyph-name="R" unicode="R" horiz-adv-x="573" 
d="M41 0l151 714h157q220 0 220 -181q0 -77 -40.5 -134t-137.5 -84l118 -315h-98l-102 295h-117l-62 -295h-89zM286 371q100 0 145.5 43.5t45.5 112.5q0 61 -34 85t-102 24h-76l-57 -265h78z" />
    <glyph glyph-name="S" unicode="S" horiz-adv-x="505" 
d="M185 -10q-52 0 -91.5 8t-74.5 24v88q30 -16 71.5 -29t95.5 -13q45 0 83 14t61 43t23 75q0 40 -26.5 68.5t-91.5 65.5q-38 23 -67.5 47.5t-46 57t-16.5 78.5q0 66 32 112.5t85.5 70.5t117.5 24q56 0 98.5 -11t80.5 -31l-34 -76q-26 14 -65 26.5t-80 12.5q-61 0 -100.5 -32
t-39.5 -90q0 -30 11 -50.5t34 -37t57 -37.5q43 -26 75.5 -51t51 -58t18.5 -82q0 -107 -71.5 -162t-190.5 -55z" />
    <glyph glyph-name="T" unicode="T" horiz-adv-x="501" 
d="M152 0l134 635h-196l17 79h482l-16 -79h-196l-135 -635h-90z" />
    <glyph glyph-name="U" unicode="U" horiz-adv-x="677" 
d="M300 -10q-112 0 -166.5 51.5t-54.5 146.5q0 17 3 42t9 53l92 431h89l-93 -436q-5 -23 -8 -48t-3 -41q0 -56 34.5 -88t102.5 -32q89 0 132.5 46t62.5 135l99 464h89l-100 -471q-16 -78 -50.5 -135t-92.5 -87.5t-145 -30.5z" />
    <glyph glyph-name="V" unicode="V" horiz-adv-x="552" 
d="M169 0l-77 714h88l45 -452q5 -41 7.5 -83t1.5 -78h2q15 36 34 75.5t43 86.5l232 451h99l-380 -714h-95z" />
    <glyph glyph-name="W" unicode="W" horiz-adv-x="856" 
d="M137 0l-30 714h88l14 -435q2 -41 0 -85t-4 -84h3q14 39 34 89.5t41 94.5l196 420h91l20 -418q3 -47 4 -98t0 -88h3q14 38 29.5 83t34.5 89l187 432h95l-324 -714h-91l-22 460q-2 33 -3 70.5t-1 68.5h-3q-10 -30 -23 -61t-36 -81l-211 -457h-92z" />
    <glyph glyph-name="X" unicode="X" horiz-adv-x="527" 
d="M-52 0l291 378l-127 336h90l97 -273l212 273h98l-270 -340l135 -374h-94l-102 309l-232 -309h-98z" />
    <glyph glyph-name="Y" unicode="Y" horiz-adv-x="509" 
d="M150 0l58 268l-116 446h89l85 -358l234 358h101l-306 -449l-55 -265h-90z" />
    <glyph glyph-name="Z" unicode="Z" horiz-adv-x="531" 
d="M-10 0l14 70l445 564h-315l17 80h422l-13 -71l-445 -563h335l-16 -80h-444z" />
    <glyph glyph-name="bracketleft" unicode="[" horiz-adv-x="290" 
d="M-9 -158l186 872h193l-16 -72h-110l-154 -728h110l-16 -72h-193z" />
    <glyph glyph-name="backslash" unicode="\" horiz-adv-x="356" 
d="M214 0l-106 714h80l106 -714h-80z" />
    <glyph glyph-name="bracketright" unicode="]" horiz-adv-x="290" 
d="M-72 -158l15 72h110l154 728h-110l16 72h193l-186 -872h-192z" />
    <glyph glyph-name="asciicircum" unicode="^" horiz-adv-x="572" 
d="M38 267l212 452h50l234 -452h-78l-180 359l-160 -359h-78z" />
    <glyph glyph-name="underscore" unicode="_" horiz-adv-x="395" 
d="M-92 -158l15 68h397l-15 -68h-397z" />
    <glyph glyph-name="grave" unicode="`" horiz-adv-x="278" 
d="M256 606q-19 19 -40.5 46t-40.5 55t-29 49v10h94q11 -37 30.5 -75.5t39.5 -72.5v-12h-54z" />
    <glyph glyph-name="a" unicode="a" horiz-adv-x="568" 
d="M193 -10q-64 0 -104.5 46.5t-40.5 136.5q0 75 19.5 142.5t54.5 119t83 81.5t106 30q53 0 86 -28t49 -65h5l32 83h67l-114 -536h-70l13 99h-4q-34 -44 -80 -76.5t-102 -32.5zM222 63q37 0 72.5 27t64.5 73t44 103q8 29 10.5 53.5t2.5 45.5q0 47 -26 77t-70 30
q-39 0 -72 -24.5t-58 -67t-38.5 -96.5t-13.5 -113q0 -54 22 -81t62 -27z" />
    <glyph glyph-name="b" unicode="b" horiz-adv-x="579" 
d="M269 -10q-54 0 -87.5 27.5t-49.5 64.5h-5l-33 -82h-66l161 760h88l-38 -180q-7 -34 -15.5 -66.5t-14.5 -54t-7 -23.5h4q36 44 78.5 76.5t98.5 32.5q66 0 106.5 -46t40.5 -136q0 -73 -18 -140t-52 -119.5t-82 -83t-109 -30.5zM262 63q40 0 73 25.5t56.5 68.5t36 97
t12.5 110q0 108 -85 108q-33 0 -67.5 -24.5t-63.5 -67t-46.5 -96.5t-17.5 -113q0 -48 25 -78t77 -30z" />
    <glyph glyph-name="c" unicode="c" horiz-adv-x="453" 
d="M247 -10q-89 0 -144 50t-55 150q0 72 19.5 136.5t56 113.5t88.5 77.5t116 28.5q35 0 70 -7t63 -19l-25 -73q-20 9 -47.5 17t-59.5 8q-57 0 -100 -38.5t-67 -102.5t-24 -140q0 -61 31.5 -94.5t86.5 -33.5q35 0 66.5 10t62.5 23v-74q-28 -14 -62.5 -23t-75.5 -9z" />
    <glyph glyph-name="d" unicode="d" horiz-adv-x="579" 
d="M193 -10q-64 0 -104.5 46t-40.5 137q0 74 18 140.5t52.5 119t83 82.5t109.5 30q54 0 86.5 -27.5t48.5 -64.5h5q5 34 9.5 65t12.5 67l37 175h87l-161 -760h-72l11 99h-4q-36 -45 -79 -77t-99 -32zM223 63q33 0 67 24.5t63 66.5t46.5 96t17.5 114q0 48 -23.5 78t-76.5 30
q-40 0 -72.5 -25.5t-56.5 -68.5t-37 -97t-13 -110q0 -108 85 -108z" />
    <glyph glyph-name="e" unicode="e" horiz-adv-x="499" 
d="M242 -10q-93 0 -143.5 54.5t-50.5 147.5q0 64 18.5 126.5t53.5 114t84.5 82.5t111.5 31q76 0 114.5 -33t38.5 -92q0 -52 -32.5 -95t-101.5 -68.5t-179 -25.5h-17q-1 -9 -1.5 -19t-0.5 -18q0 -61 30 -96.5t91 -35.5q38 0 72 11t74 30v-75q-38 -17 -74.5 -28t-87.5 -11z
M159 303q60 0 111 10.5t82 35t31 65.5q0 26 -17.5 42.5t-54.5 16.5q-48 0 -92.5 -44.5t-66.5 -125.5h7z" />
    <glyph glyph-name="f" unicode="f" horiz-adv-x="318" 
d="M-48 -240q-19 0 -35 3t-29 7v74q14 -4 27 -7.5t29 -3.5q36 0 56 29.5t32 84.5l110 522h-93l7 37l100 33l11 48q16 69 39.5 107.5t58.5 54.5t84 16q25 0 51.5 -5.5t42.5 -13.5l-23 -67q-14 5 -30.5 9.5t-36.5 4.5q-39 0 -61.5 -22t-36.5 -84l-12 -51h115l-13 -67h-115
l-112 -532q-18 -83 -56 -130t-110 -47z" />
    <glyph glyph-name="g" unicode="g" horiz-adv-x="579" 
d="M186 -240q-49 0 -90.5 9.5t-70.5 24.5v81q26 -16 70.5 -29t87.5 -13q62 0 102 30t56 100l9 38q5 23 12.5 51t12.5 47h-4q-34 -44 -77.5 -76.5t-99.5 -32.5q-65 0 -105.5 46.5t-40.5 136.5q0 73 18 140t52.5 119.5t83 83t109.5 30.5q54 0 87 -28t49 -65h4l33 83h67
l-122 -567q-24 -113 -85.5 -161t-157.5 -48zM223 63q34 0 68 25t62.5 67.5t45.5 96.5t17 112q0 48 -22.5 78t-75.5 30q-40 0 -73 -25.5t-57 -68.5t-37 -97t-13 -110q0 -108 85 -108z" />
    <glyph glyph-name="h" unicode="h" horiz-adv-x="579" 
d="M28 0l161 760h88l-43 -197q-6 -30 -15 -62.5t-17 -64.5h5q19 25 45 50t59.5 42t76.5 17q62 0 98.5 -34.5t36.5 -102.5q0 -19 -3 -39t-8 -43l-70 -326h-88l71 336q9 45 9 66q0 33 -16.5 51.5t-53.5 18.5q-34 0 -73.5 -23.5t-73 -76.5t-52.5 -141l-49 -231h-88z" />
    <glyph glyph-name="i" unicode="i" horiz-adv-x="258" 
d="M213 625q-21 0 -34.5 12.5t-13.5 34.5q0 26 15.5 45t43.5 19q46 0 46 -45q0 -31 -18 -48.5t-39 -17.5zM28 0l114 536h88l-114 -536h-88z" />
    <glyph glyph-name="j" unicode="j" horiz-adv-x="258" 
d="M212 625q-20 0 -33.5 12.5t-13.5 34.5q0 26 15.5 45t43.5 19q45 0 45 -45q0 -31 -18 -48.5t-39 -17.5zM-64 -240q-37 0 -62 10v74q12 -4 27 -7.5t31 -3.5q61 0 82 98l128 605h87l-130 -613q-16 -75 -52.5 -119t-110.5 -44z" />
    <glyph glyph-name="k" unicode="k" horiz-adv-x="495" 
d="M27 0l161 760h89l-65 -302q-17 -80 -29.5 -123.5t-17.5 -57.5h2l254 259h104l-230 -230l143 -306h-97l-113 251l-72 -57l-40 -194h-89z" />
    <glyph glyph-name="l" unicode="l" horiz-adv-x="258" 
d="M27 0l162 760h88l-162 -760h-88z" />
    <glyph glyph-name="m" unicode="m" horiz-adv-x="875" 
d="M28 0l114 536h72l-11 -99h5q18 25 42.5 50t57 42t73.5 17q55 0 84.5 -31.5t35.5 -87.5h4q20 30 47.5 57t61.5 44.5t75 17.5q62 0 96 -34t34 -98q0 -24 -3 -44.5t-8 -43.5l-69 -326h-89l72 336q5 23 7 39t2 31q0 30 -16.5 48t-51.5 18q-32 0 -68.5 -24t-68 -74.5
t-48.5 -131.5l-51 -242h-88l71 336q9 45 9 66q0 33 -15 51.5t-50 18.5q-32 0 -69 -23.5t-69 -76.5t-51 -141l-49 -231h-88z" />
    <glyph glyph-name="n" unicode="n" horiz-adv-x="579" 
d="M24 0l115 539h78l-11 -99h1q19 25 44.5 50t59.5 42t77 17q65 0 101.5 -35.5t36.5 -99.5q0 -23 -3.5 -47t-7.5 -42l-71 -325h-94l72 337q5 23 7.5 38.5t2.5 29.5q0 64 -68 64q-33 0 -71.5 -23t-72 -75t-52.5 -140l-50 -231h-94z" />
    <glyph glyph-name="o" unicode="o" horiz-adv-x="563" 
d="M248 -8q-93 0 -146.5 55.5t-53.5 150.5q0 62 17 123t50.5 111t84 80.5t116.5 30.5q94 0 147 -55.5t53 -151.5q0 -61 -17 -122t-50.5 -111t-83.5 -80.5t-117 -30.5zM253 65q48 0 87 33.5t62.5 96.5t23.5 151q0 30 -10.5 58.5t-34.5 47t-64 18.5q-55 0 -95.5 -37.5
t-62.5 -100t-22 -137.5q0 -62 30.5 -96t85.5 -34z" />
    <glyph glyph-name="p" unicode="p" horiz-adv-x="579" 
d="M-22 -240l164 776h72l-12 -100h4q35 44 79 76.5t100 32.5q65 0 105 -46t40 -137q0 -73 -18 -140t-52 -119.5t-82.5 -82.5t-108.5 -30q-54 0 -87 27.5t-50 64.5h-5q-1 -16 -5 -44.5t-8 -46.5l-49 -231h-87zM262 63q40 0 73 25.5t56.5 68.5t36 97t12.5 110q0 108 -85 108
q-33 0 -67.5 -24.5t-63.5 -66.5t-46.5 -96t-17.5 -114q0 -48 25 -78t77 -30z" />
    <glyph glyph-name="q" unicode="q" horiz-adv-x="579" 
d="M346 -12q5 19 13.5 52.5t15.5 58.5h-4q-34 -44 -77.5 -76.5t-99.5 -32.5q-65 0 -105.5 46t-40.5 137q0 73 18 140t52.5 119.5t83.5 83t110 30.5q53 0 85.5 -28t48.5 -65h5l33 83h66l-165 -776h-87zM223 63q33 0 67 25t62.5 67.5t46 96.5t17.5 112q0 44 -23 76t-75 32
q-40 0 -73 -25.5t-57 -68.5t-37 -97t-13 -110q0 -108 85 -108z" />
    <glyph glyph-name="r" unicode="r" horiz-adv-x="398" 
d="M28 0l114 536h72l-11 -99h5q21 28 44 52.5t52 40.5t67 16q14 0 29.5 -1.5t28.5 -5.5l-19 -79q-27 6 -51 6q-50 0 -89 -33t-65 -84t-37 -104l-52 -245h-88z" />
    <glyph glyph-name="s" unicode="s" horiz-adv-x="432" 
d="M155 -10q-49 0 -85.5 9.5t-64.5 24.5v81q26 -16 65.5 -29.5t81.5 -13.5q59 0 90 23.5t31 60.5q0 29 -19 48.5t-71 48.5q-57 32 -86 66t-29 85q0 68 49.5 110t132.5 42q49 0 90.5 -11.5t71.5 -25.5l-28 -70q-26 12 -58 22.5t-76 10.5q-43 0 -68.5 -20.5t-25.5 -52.5
q0 -26 17.5 -45.5t70.5 -48.5q34 -20 61 -40t42.5 -46t15.5 -64q0 -81 -56.5 -123t-151.5 -42z" />
    <glyph glyph-name="t" unicode="t" horiz-adv-x="332" 
d="M185 -10q-54 0 -91 26t-37 91q0 32 9 71l61 291h-83l8 40l90 38l62 111h52l-27 -122h135l-14 -67h-134l-62 -292q-3 -13 -6 -29.5t-3 -30.5q0 -23 12.5 -39t40.5 -16q18 0 35 3.5t36 9.5v-67q-12 -6 -37 -12t-47 -6z" />
    <glyph glyph-name="u" unicode="u" horiz-adv-x="579" 
d="M189 -10q-61 0 -97.5 34t-36.5 99q0 23 3.5 43.5t7.5 42.5l70 327h89l-72 -337q-9 -43 -9 -67q0 -32 16.5 -50.5t53.5 -18.5q34 0 73.5 24t73.5 77t53 141l49 231h87l-114 -536h-72l11 99h-5q-19 -24 -44.5 -49.5t-59 -42.5t-77.5 -17z" />
    <glyph glyph-name="v" unicode="v" horiz-adv-x="467" 
d="M110 0l-62 536h88l30 -298q3 -26 5.5 -61t4 -65.5t1.5 -44.5h3q11 25 26 57t30.5 64t26.5 53l158 295h94l-290 -536h-115z" />
    <glyph glyph-name="w" unicode="w" horiz-adv-x="723" 
d="M79 0l-22 536h86l8 -286q2 -55 0 -99.5t-4 -73.5h4q8 21 19 49.5t23.5 57t22.5 49.5l141 303h95l17 -287q1 -37 2 -85.5t-1 -86.5h4q13 38 33 89.5t44 106.5l117 263h93l-248 -536h-106l-15 290q-2 40 -1.5 77t0.5 84h-4q-13 -37 -26.5 -68.5t-37.5 -82.5l-140 -300h-104
z" />
    <glyph glyph-name="x" unicode="x" horiz-adv-x="483" 
d="M-37 0l232 276l-116 260h89l83 -198l157 198h102l-223 -264l123 -272h-89l-91 208l-165 -208h-102z" />
    <glyph glyph-name="y" unicode="y" horiz-adv-x="467" 
d="M-25 -240q-24 0 -39.5 3t-29.5 7v71q14 -4 30 -6.5t34 -2.5q41 0 69.5 25t54.5 73l35 62l-81 544h88l35 -265q5 -32 7.5 -70.5t4 -73t1.5 -55.5h3q7 16 20.5 48t29.5 66t28 56l156 294h94l-340 -626q-40 -75 -84.5 -112.5t-115.5 -37.5z" />
    <glyph glyph-name="z" unicode="z" horiz-adv-x="445" 
d="M-15 0l12 60l333 410h-230l14 66h325l-14 -71l-327 -399h255l-13 -66h-355z" />
    <glyph glyph-name="braceleft" unicode="{" horiz-adv-x="350" 
d="M217 -158q-70 0 -107.5 26.5t-37.5 83.5q0 16 3 32.5t7 35.5l24 105q3 16 5 29t2 25q0 70 -102 70l17 73q58 0 93 21t45 72l33 157q17 79 58.5 110.5t124.5 31.5h18l-15 -73q-44 0 -69 -15t-36 -62l-35 -156q-11 -51 -39.5 -84t-87.5 -43v-2q39 -10 57 -37.5t18 -66.5
q0 -13 -2.5 -30t-6.5 -33l-22 -102q-3 -13 -5 -24.5t-2 -21.5q0 -29 20.5 -39t54.5 -10v-73h-13z" />
    <glyph glyph-name="bar" unicode="|" horiz-adv-x="551" 
d="M260 -241v1001h72v-1001h-72z" />
    <glyph glyph-name="braceright" unicode="}" horiz-adv-x="350" 
d="M-37 -85q48 0 76 15t38 62l35 156q11 51 40 83.5t87 42.5v3q-39 11 -56.5 37.5t-17.5 65.5q0 14 2.5 30.5t6.5 32.5l23 103q3 13 5 24.5t2 21.5q0 29 -23 39t-64 10l15 73h6q72 0 109.5 -26.5t37.5 -83.5q0 -16 -2.5 -32.5t-7.5 -35.5l-24 -106q-3 -16 -5.5 -28.5
t-2.5 -24.5q0 -70 102 -70l-16 -73q-58 0 -92.5 -21t-45.5 -72l-33 -157q-12 -56 -35 -87t-60 -43t-93 -12h-7v73z" />
    <glyph glyph-name="asciitilde" unicode="~" horiz-adv-x="572" 
d="M289 319q-36 16 -59.5 21.5t-45.5 5.5q-28 0 -59 -17t-55 -42v78q48 53 120 53q29 0 57.5 -6t74.5 -26q36 -16 59.5 -21.5t44.5 -5.5q29 0 60 17t55 42v-77q-49 -54 -120 -54q-28 0 -57.5 6.5t-74.5 25.5z" />
    <glyph glyph-name="uni00A0" unicode="&#xa0;" horiz-adv-x="260" 
 />
    <glyph glyph-name="exclamdown" unicode="&#xa1;" horiz-adv-x="261" 
d="M172 411q-52 0 -52 52q0 33 18.5 58t57.5 25q23 0 36 -14t13 -40q0 -29 -17.5 -55t-55.5 -26zM-10 -182l134 513h58l-85 -513h-107z" />
    <glyph glyph-name="cent" unicode="&#xa2;" horiz-adv-x="551" 
d="M241 95q-61 16 -97.5 64.5t-36.5 128.5q0 90 30 166t85.5 126.5t130.5 61.5l16 82h63l-18 -82q61 -5 107 -24l-25 -73q-20 9 -47.5 17t-59.5 8q-57 0 -100.5 -38.5t-67.5 -102.5t-24 -140q0 -61 32 -95t87 -34q35 0 66.5 10t61.5 24v-75q-27 -13 -61.5 -22t-78.5 -10
l-20 -97h-64z" />
    <glyph glyph-name="sterling" unicode="&#xa3;" horiz-adv-x="551" 
d="M3 74q44 10 78 42t48 98l22 102h-98l14 66h98l35 167q21 96 78.5 135t133.5 39q53 0 94.5 -12.5t71.5 -29.5l-34 -69q-24 13 -58 25.5t-76 12.5q-40 0 -75.5 -22.5t-49.5 -90.5l-33 -155h178l-14 -66h-178l-22 -101q-13 -61 -38.5 -90t-55.5 -45h351l-17 -80h-467z" />
    <glyph glyph-name="currency" unicode="&#xa4;" horiz-adv-x="551" 
d="M398 201q-22 -15 -48.5 -23.5t-55.5 -8.5t-56 9t-49 24l-62 -62l-46 47l62 62q-16 22 -24.5 48t-8.5 56q0 57 33 104l-63 63l47 48l62 -63q23 15 49.5 24t55.5 9t55.5 -9t48.5 -24l63 63l48 -47l-63 -63q14 -22 23.5 -49t9.5 -56q0 -30 -9 -56.5t-24 -48.5l62 -62
l-47 -47zM294 236q50 0 85 34t35 83q0 50 -35 84.5t-85 34.5q-49 0 -83 -34.5t-34 -84.5q0 -49 34 -83t83 -34z" />
    <glyph glyph-name="yen" unicode="&#xa5;" horiz-adv-x="551" 
d="M174 0l27 128h-141l15 67h140l16 77h-141l15 67h109l-99 375h86l84 -358l235 358h96l-258 -375h111l-14 -67h-143l-16 -77h143l-14 -67h-142l-28 -128h-81z" />
    <glyph glyph-name="brokenbar" unicode="&#xa6;" horiz-adv-x="551" 
d="M260 379v381h72v-381h-72zM260 -241v381h72v-381h-72z" />
    <glyph glyph-name="section" unicode="&#xa7;" horiz-adv-x="486" 
d="M173 -5q-50 0 -86.5 9.5t-59.5 21.5v75q26 -14 65.5 -26.5t80.5 -12.5q63 0 96.5 21.5t33.5 61.5q0 23 -21.5 41.5t-75.5 43.5q-55 25 -88.5 57.5t-33.5 88.5q0 57 34 92.5t80 56.5q-25 16 -41 40t-16 59q0 59 49 100t140 41q47 0 87 -9t71 -25l-27 -63q-33 14 -65 22
t-66 8q-25 0 -49.5 -7t-40 -22.5t-15.5 -41.5t22 -43.5t74 -40.5q53 -24 87.5 -55.5t34.5 -85.5q0 -51 -31.5 -90.5t-80.5 -64.5q23 -15 39 -37t16 -56q0 -70 -53.5 -114.5t-159.5 -44.5zM281 277q32 17 57 46.5t25 66.5q0 31 -25.5 53.5t-86.5 47.5q-31 -10 -60 -37
t-29 -68q0 -34 25.5 -56.5t93.5 -52.5z" />
    <glyph glyph-name="dieresis" unicode="&#xa8;" horiz-adv-x="554" 
d="M442 631q-18 0 -30 11t-12 31q0 23 14 40t39 17q20 0 30 -11t10 -29q0 -28 -16 -43.5t-35 -15.5zM263 631q-19 0 -31 11t-12 31q0 23 14 40t39 17q21 0 30.5 -11t9.5 -29q0 -28 -15.5 -43.5t-34.5 -15.5z" />
    <glyph glyph-name="copyright" unicode="&#xa9;" horiz-adv-x="832" 
d="M416 -10q-80 0 -147 27t-116.5 76.5t-76.5 116.5t-27 147t27 147t76.5 116.5t116.5 76.5t147 27q76 0 142.5 -27t117 -76.5t79 -116.5t28.5 -147t-27 -147t-76.5 -116.5t-116.5 -76.5t-147 -27zM416 43q64 0 120 23t99 65.5t67 99.5t24 126q0 65 -23 122t-64.5 100
t-98 67.5t-124.5 24.5q-90 0 -160.5 -40.5t-110.5 -111t-40 -162.5q0 -65 23 -122t64.5 -100t98.5 -67.5t125 -24.5zM431 133q-99 0 -148 61.5t-49 162.5q0 65 23 115.5t68 79t110 28.5t123 -30l-29 -61q-50 26 -93 26q-59 0 -91.5 -42t-32.5 -116q0 -76 28.5 -117.5
t94.5 -41.5q23 0 51.5 6.5t53.5 16.5v-64q-24 -10 -49 -17t-60 -7z" />
    <glyph glyph-name="ordfeminine" unicode="&#xaa;" horiz-adv-x="339" 
d="M170 383q-37 0 -62.5 28.5t-25.5 83.5q0 57 18.5 109t54.5 85t88 33q32 0 49.5 -15t25.5 -35h4l18 44h45l-69 -327h-47l7 56h-3q-19 -26 -43 -44t-60 -18zM189 436q28 0 48.5 17.5t34.5 44t21 56t7 53.5q0 29 -13.5 46t-41.5 17q-32 0 -55.5 -25t-36 -63.5t-12.5 -79.5
q0 -34 13 -50t35 -16z" />
    <glyph glyph-name="guillemotleft" unicode="&#xab;" horiz-adv-x="477" 
d="M154 54l-112 217v13l192 187l43 -43l-144 -160l82 -188zM344 54l-105 197v14l181 201l47 -38l-138 -177l76 -171z" />
    <glyph glyph-name="logicalnot" unicode="&#xac;" horiz-adv-x="572" 
d="M540 388v-260h-71v189h-399v71h470z" />
    <glyph glyph-name="uni00AD" unicode="&#xad;" horiz-adv-x="313" 
d="M26 227l18 81h236l-18 -81h-236z" />
    <glyph glyph-name="registered" unicode="&#xae;" horiz-adv-x="832" 
d="M416 -10q-80 0 -147 27t-116.5 76.5t-76.5 116.5t-27 147t27 147t76.5 116.5t116.5 76.5t147 27q76 0 142.5 -27t117 -76.5t79 -116.5t28.5 -147t-27 -147t-76.5 -116.5t-116.5 -76.5t-147 -27zM416 43q64 0 120 23t99 65.5t67 99.5t24 126q0 65 -23 122t-64.5 100
t-98 67.5t-124.5 24.5q-90 0 -160.5 -40.5t-110.5 -111t-40 -162.5q0 -65 23 -122t64.5 -100t98.5 -67.5t125 -24.5zM279 138v437h128q82 0 120 -32t38 -97q0 -47 -24 -74.5t-54 -39.5l116 -194h-86l-100 173h-62v-173h-76zM405 373q39 0 61 20t22 51q0 35 -20 51t-64 16
h-49v-138h50z" />
    <glyph glyph-name="overscore" unicode="&#xaf;" horiz-adv-x="393" 
d="M101 760l16 67h395l-17 -67h-394z" />
    <glyph glyph-name="degree" unicode="&#xb0;" horiz-adv-x="428" 
d="M214 417q-72 0 -115.5 42.5t-43.5 110.5t43 111t116 43q71 0 115 -43t44 -111t-44 -110.5t-115 -42.5zM215 476q48 0 70.5 26t22.5 68q0 44 -23.5 70t-69.5 26q-49 0 -72 -26t-23 -70q0 -42 23 -68t72 -26z" />
    <glyph glyph-name="plusminus" unicode="&#xb1;" horiz-adv-x="572" 
d="M341 391h199v-71h-199v-206h-72v206h-199v71h199v207h72v-207zM70 0v71h471v-71h-471z" />
    <glyph glyph-name="uni00B2" unicode="&#xb2;" horiz-adv-x="353" 
d="M71 416l12 55l129 110q60 52 88 86t28 73q0 25 -14.5 40t-42.5 15q-47 0 -95 -39l-31 47q31 25 64.5 37.5t73.5 12.5q42 0 67 -15t36.5 -38.5t11.5 -48.5q0 -33 -11.5 -61t-38.5 -58t-73 -68l-104 -87h191l-13 -61h-278z" />
    <glyph glyph-name="uni00B3" unicode="&#xb3;" horiz-adv-x="353" 
d="M196 409q-33 0 -62.5 7.5t-52.5 19.5v65q26 -15 57 -25t60 -10q50 0 74.5 22t24.5 59q0 64 -84 64h-46l12 55h46q46 0 74 19.5t28 53.5q0 59 -64 57q-26 -1 -48.5 -9.5t-43.5 -23.5l-28 48q23 18 57 30.5t76 12.5q60 0 90 -28.5t30 -72.5q0 -45 -27 -72.5t-75 -40.5v-4
q35 -8 53.5 -32.5t18.5 -58.5q0 -58 -41.5 -97t-128.5 -39z" />
    <glyph glyph-name="acute" unicode="&#xb4;" horiz-adv-x="263" 
d="M115 619q18 19 38.5 45t40 53t33.5 49h100v-10q-14 -17 -41.5 -46t-58.5 -57.5t-57 -46.5h-55v13z" />
    <glyph glyph-name="uni00B5" unicode="&#xb5;" horiz-adv-x="585" 
d="M-22 -240l164 776h88l-71 -337q-9 -43 -9 -65q0 -34 16.5 -52.5t53.5 -18.5q34 0 72.5 23.5t73 76.5t53.5 140l51 233h86l-114 -536h-72l11 99h-5q-19 -25 -44.5 -50.5t-58 -42t-74.5 -16.5q-55 0 -79 46h-4q-2 -14 -6 -38t-7.5 -47t-6.5 -37l-32 -154h-86z" />
    <glyph glyph-name="paragraph" unicode="&#xb6;" horiz-adv-x="655" 
d="M371 273q-30 -9 -71 -9q-62 0 -108 23t-71.5 77t-25.5 145q0 96 27.5 150.5t77 77.5t115.5 23h274v-887h-58v809h-102v-809h-58v400z" />
    <glyph glyph-name="periodcentered" unicode="&#xb7;" horiz-adv-x="256" 
d="M133 285q-52 0 -52 52q0 33 18.5 58t58.5 25q22 0 35.5 -13.5t13.5 -39.5q0 -31 -18 -56.5t-56 -25.5z" />
    <glyph glyph-name="cedilla" unicode="&#xb8;" horiz-adv-x="205" 
d="M-40 -240q-27 0 -45 5v52q10 -2 19.5 -3t16.5 -1q82 0 82 53q0 22 -18.5 32t-48.5 14l48 88h56l-29 -57q23 -7 43.5 -23.5t20.5 -53.5q0 -45 -37 -75.5t-108 -30.5z" />
    <glyph glyph-name="uni00B9" unicode="&#xb9;" horiz-adv-x="353" 
d="M243 666q5 25 13.5 56.5t14.5 52.5q-8 -7 -19.5 -17.5t-23.5 -19.5l-52 -34l-28 47l142 92h62l-91 -428h-71z" />
    <glyph glyph-name="ordmasculine" unicode="&#xba;" horiz-adv-x="339" 
d="M208 383q-52 0 -87 32.5t-35 98.5q0 52 18.5 99.5t55 78t91.5 30.5q63 0 91.5 -36t28.5 -92q0 -51 -17 -99.5t-52.5 -80t-93.5 -31.5zM213 435q34 0 56 22.5t33 58.5t11 75q0 41 -17.5 59.5t-46.5 18.5q-35 0 -58 -21.5t-34.5 -56.5t-11.5 -75t18 -60.5t50 -20.5z" />
    <glyph glyph-name="guillemotright" unicode="&#xbb;" horiz-adv-x="477" 
d="M243 54l-43 43l144 159l-82 189l61 26l112 -218v-14zM57 60l-47 37l138 175l-76 173l61 26l105 -198v-15z" />
    <glyph glyph-name="onequarter" unicode="&#xbc;" horiz-adv-x="732" 
d="M86 0l530 714h79l-530 -714h-79zM212 537q5 25 13.5 56.5t14.5 52.5q-8 -7 -19.5 -17.5t-23.5 -19.5l-52 -34l-28 47l142 92h62l-91 -428h-71zM536 1l20 97h-178l11 52l235 282h71l-59 -275h61l-11 -59h-63l-20 -97h-67zM461 157h108l20 92q6 26 11 49.5t12 47.5
q-4 -7 -13.5 -20.5t-20.5 -27.5t-19 -23z" />
    <glyph glyph-name="onehalf" unicode="&#xbd;" horiz-adv-x="805" 
d="M88 0l530 714h79l-530 -714h-79zM212 537q5 25 13.5 56.5t14.5 52.5q-8 -7 -19.5 -17.5t-23.5 -19.5l-52 -34l-28 47l142 92h62l-91 -428h-71zM435 1l12 55l129 110q60 52 88 86t28 73q0 25 -14.5 40t-42.5 15q-47 0 -95 -39l-31 47q31 25 64.5 37.5t73.5 12.5
q42 0 67 -15t36.5 -38.5t11.5 -48.5q0 -33 -11.5 -61t-38.5 -58t-73 -68l-104 -87h191l-13 -61h-278z" />
    <glyph glyph-name="threequarters" unicode="&#xbe;" horiz-adv-x="793" 
d="M170 279q-33 0 -62.5 7.5t-52.5 19.5v65q26 -15 57 -25t60 -10q50 0 74.5 22t24.5 59q0 64 -84 64h-46l12 55h46q46 0 74 19.5t28 53.5q0 59 -64 57q-26 -1 -48.5 -9.5t-43.5 -23.5l-28 48q23 18 57 30.5t76 12.5q60 0 90 -28.5t30 -72.5q0 -45 -27 -72.5t-75 -40.5v-4
q35 -8 53.5 -32.5t18.5 -58.5q0 -58 -41.5 -97t-128.5 -39zM150 0l530 714h79l-530 -714h-79zM597 0l20 97h-178l11 52l235 282h71l-59 -275h61l-11 -59h-63l-20 -97h-67zM522 156h108l20 92q6 26 11 49.5t12 47.5q-4 -7 -13.5 -20.5t-20.5 -27.5t-19 -23z" />
    <glyph glyph-name="questiondown" unicode="&#xbf;" horiz-adv-x="430" 
d="M306 330q-7 -43 -20.5 -75t-36.5 -59t-60 -56q-32 -24 -59.5 -47.5t-44.5 -51.5t-17 -66q0 -43 24 -67.5t70 -24.5q38 0 74.5 12.5t69.5 28.5l32 -67q-40 -22 -89.5 -36t-96.5 -14q-79 0 -126 39t-47 118q0 68 36.5 117.5t106.5 101.5q39 29 60.5 49t33 42t19.5 56h71z
M304 545q52 0 52 -52q0 -33 -18.5 -58t-58.5 -25q-22 0 -35.5 13.5t-13.5 39.5q0 31 18.5 56.5t55.5 25.5z" />
    <glyph glyph-name="Agrave" unicode="&#xc0;" horiz-adv-x="562" 
d="M-57 0l388 714h94l88 -714h-88l-27 222h-241l-116 -222h-98zM200 302h189l-16 150q-4 38 -7.5 84t-4.5 81h-3q-16 -38 -37 -81.5t-44 -87.5zM394 784q-19 19 -40.5 46t-40.5 55t-29 49v10h94q11 -37 30.5 -75.5t39.5 -72.5v-12h-54z" />
    <glyph glyph-name="Aacute" unicode="&#xc1;" horiz-adv-x="562" 
d="M-57 0l388 714h94l88 -714h-88l-27 222h-241l-116 -222h-98zM200 302h189l-16 150q-4 38 -7.5 84t-4.5 81h-3q-16 -38 -37 -81.5t-44 -87.5zM338 797q18 19 38.5 45t40 53t33.5 49h100v-10q-14 -17 -41.5 -46t-58.5 -57.5t-57 -46.5h-55v13z" />
    <glyph glyph-name="Acircumflex" unicode="&#xc2;" horiz-adv-x="562" 
d="M-57 0l388 714h94l88 -714h-88l-27 222h-241l-116 -222h-98zM200 302h189l-16 150q-4 38 -7.5 84t-4.5 81h-3q-16 -38 -37 -81.5t-44 -87.5zM227 797q17 16 45 42t54.5 54.5t40.5 50.5h85q15 -39 40 -78.5t44 -68.5v-13h-55q-18 16 -38.5 40t-40.5 51
q-30 -27 -60.5 -50.5t-56.5 -40.5h-58v13z" />
    <glyph glyph-name="Atilde" unicode="&#xc3;" horiz-adv-x="562" 
d="M-57 0l388 714h94l88 -714h-88l-27 222h-241l-116 -222h-98zM200 302h189l-16 150q-4 38 -7.5 84t-4.5 81h-3q-16 -38 -37 -81.5t-44 -87.5zM221 784q14 62 43 95t72 33q29 0 54 -13.5t46 -27.5t38 -14q22 0 34 13t24 43h53q-16 -62 -45 -95t-72 -33q-26 0 -50 14
t-45.5 27.5t-43.5 13.5q-21 0 -33 -14t-23 -42h-52z" />
    <glyph glyph-name="Adieresis" unicode="&#xc4;" horiz-adv-x="562" 
d="M-57 0l388 714h94l88 -714h-88l-27 222h-241l-116 -222h-98zM200 302h189l-16 150q-4 38 -7.5 84t-4.5 81h-3q-16 -38 -37 -81.5t-44 -87.5zM487 809q-18 0 -30 11t-12 31q0 23 14 40t39 17q20 0 30 -11t10 -29q0 -28 -16 -43.5t-35 -15.5zM308 809q-19 0 -31 11t-12 31
q0 23 14 40t39 17q21 0 30.5 -11t9.5 -29q0 -28 -15.5 -43.5t-34.5 -15.5z" />
    <glyph glyph-name="Aring" unicode="&#xc5;" horiz-adv-x="562" 
d="M-57 0l388 714h94l88 -714h-88l-27 222h-241l-116 -222h-98zM200 302h189l-16 150q-4 38 -7.5 84t-4.5 81h-3q-16 -38 -37 -81.5t-44 -87.5zM396 784q-48 0 -78 27.5t-30 77.5t32 77t76 27q48 0 78.5 -27t30.5 -76q0 -51 -31 -78.5t-78 -27.5zM396 834q25 0 40.5 15
t15.5 40q0 26 -15.5 40.5t-40.5 14.5q-23 0 -39 -14.5t-16 -40.5q0 -25 14.5 -40t40.5 -15z" />
    <glyph glyph-name="AE" unicode="&#xc6;" horiz-adv-x="824" 
d="M-58 0l457 714h465l-16 -79h-274l-48 -223h256l-15 -78h-256l-54 -255h273l-17 -79h-363l47 222h-214l-139 -222h-102zM234 302h179l71 333h-41z" />
    <glyph glyph-name="Ccedilla" unicode="&#xc7;" horiz-adv-x="587" 
d="M326 -10q-119 0 -186.5 73t-67.5 200q0 64 15 130t45.5 125t77 105.5t108.5 73.5t140 27q100 0 174 -40l-36 -74q-27 14 -60.5 24.5t-77.5 10.5q-75 0 -129.5 -33.5t-90.5 -89t-53.5 -122.5t-17.5 -135q0 -91 46.5 -143.5t128.5 -52.5q41 0 80.5 8t77.5 21v-78
q-39 -14 -78.5 -22t-95.5 -8zM234 -240q-27 0 -45 5v52q10 -2 19.5 -3t16.5 -1q82 0 82 53q0 22 -18.5 32t-48.5 14l48 88h56l-29 -57q23 -7 43.5 -23.5t20.5 -53.5q0 -45 -37 -75.5t-108 -30.5z" />
    <glyph glyph-name="Egrave" unicode="&#xc8;" horiz-adv-x="514" 
d="M41 0l151 714h362l-17 -79h-273l-47 -223h255l-15 -78h-256l-55 -255h274l-17 -79h-362zM388 784q-19 19 -40.5 46t-40.5 55t-29 49v10h94q11 -37 30.5 -75.5t39.5 -72.5v-12h-54z" />
    <glyph glyph-name="Eacute" unicode="&#xc9;" horiz-adv-x="514" 
d="M41 0l151 714h362l-17 -79h-273l-47 -223h255l-15 -78h-256l-55 -255h274l-17 -79h-362zM332 797q18 19 38.5 45t40 53t33.5 49h100v-10q-14 -17 -41.5 -46t-58.5 -57.5t-57 -46.5h-55v13z" />
    <glyph glyph-name="Ecircumflex" unicode="&#xca;" horiz-adv-x="514" 
d="M41 0l151 714h362l-17 -79h-273l-47 -223h255l-15 -78h-256l-55 -255h274l-17 -79h-362zM221 797q17 16 45 42t54.5 54.5t40.5 50.5h85q15 -39 40 -78.5t44 -68.5v-13h-55q-18 16 -38.5 40t-40.5 51q-30 -27 -60.5 -50.5t-56.5 -40.5h-58v13z" />
    <glyph glyph-name="Edieresis" unicode="&#xcb;" horiz-adv-x="514" 
d="M41 0l151 714h362l-17 -79h-273l-47 -223h255l-15 -78h-256l-55 -255h274l-17 -79h-362zM481 809q-18 0 -30 11t-12 31q0 23 14 40t39 17q20 0 30 -11t10 -29q0 -28 -16 -43.5t-35 -15.5zM302 809q-19 0 -31 11t-12 31q0 23 14 40t39 17q21 0 30.5 -11t9.5 -29
q0 -28 -15.5 -43.5t-34.5 -15.5z" />
    <glyph glyph-name="Igrave" unicode="&#xcc;" horiz-adv-x="324" 
d="M-20 0l10 49l85 20l122 576l-76 19l10 50h250l-10 -50l-86 -19l-122 -576l77 -20l-10 -49h-250zM275 784q-19 19 -40.5 46t-40.5 55t-29 49v10h94q11 -37 30.5 -75.5t39.5 -72.5v-12h-54z" />
    <glyph glyph-name="Iacute" unicode="&#xcd;" horiz-adv-x="324" 
d="M-20 0l10 49l85 20l122 576l-76 19l10 50h250l-10 -50l-86 -19l-122 -576l77 -20l-10 -49h-250zM219 797q18 19 38.5 45t40 53t33.5 49h100v-10q-14 -17 -41.5 -46t-58.5 -57.5t-57 -46.5h-55v13z" />
    <glyph glyph-name="Icircumflex" unicode="&#xce;" horiz-adv-x="324" 
d="M-20 0l10 49l85 20l122 576l-76 19l10 50h250l-10 -50l-86 -19l-122 -576l77 -20l-10 -49h-250zM108 797q17 16 45 42t54.5 54.5t40.5 50.5h85q15 -39 40 -78.5t44 -68.5v-13h-55q-18 16 -38.5 40t-40.5 51q-30 -27 -60.5 -50.5t-56.5 -40.5h-58v13z" />
    <glyph glyph-name="Idieresis" unicode="&#xcf;" horiz-adv-x="324" 
d="M-20 0l10 49l85 20l122 576l-76 19l10 50h250l-10 -50l-86 -19l-122 -576l77 -20l-10 -49h-250zM368 809q-18 0 -30 11t-12 31q0 23 14 40t39 17q20 0 30 -11t10 -29q0 -28 -16 -43.5t-35 -15.5zM189 809q-19 0 -31 11t-12 31q0 23 14 40t39 17q21 0 30.5 -11t9.5 -29
q0 -28 -15.5 -43.5t-34.5 -15.5z" />
    <glyph glyph-name="Eth" unicode="&#xd0;" horiz-adv-x="667" 
d="M41 0l67 315h-75l17 77h74l68 322h169q129 0 202 -70t73 -215q0 -124 -48.5 -221t-142 -152.5t-228.5 -55.5h-176zM222 77q104 0 175 47t108 127t37 179q0 110 -52.5 158.5t-139.5 48.5h-85l-52 -245h157l-17 -77h-156l-51 -238h76z" />
    <glyph glyph-name="Ntilde" unicode="&#xd1;" horiz-adv-x="707" 
d="M40 0l151 714h95l219 -590h3q5 36 14.5 91.5t20.5 105.5l84 393h85l-151 -714h-95l-221 592h-3q-2 -21 -7.5 -55t-13 -73t-15.5 -76l-82 -388h-84zM299 784q14 62 43 95t72 33q29 0 54 -13.5t46 -27.5t38 -14q22 0 34 13t24 43h53q-16 -62 -45 -95t-72 -33q-26 0 -50 14
t-45.5 27.5t-43.5 13.5q-21 0 -33 -14t-23 -42h-52z" />
    <glyph glyph-name="Ograve" unicode="&#xd2;" horiz-adv-x="721" 
d="M337 -10q-128 0 -196.5 74.5t-68.5 202.5q0 92 24.5 175t71.5 146.5t114 100t151 36.5q122 0 189.5 -75t67.5 -206q0 -93 -22.5 -175t-67 -144.5t-110.5 -98.5t-153 -36zM340 69q60 0 107 30t80 82.5t50.5 120.5t17.5 144q0 95 -45 147.5t-123 52.5q-60 0 -108 -29.5
t-82 -81t-52 -120t-18 -146.5q0 -94 46 -147t127 -53zM474 784q-19 19 -40.5 46t-40.5 55t-29 49v10h94q11 -37 30.5 -75.5t39.5 -72.5v-12h-54z" />
    <glyph glyph-name="Oacute" unicode="&#xd3;" horiz-adv-x="721" 
d="M337 -10q-128 0 -196.5 74.5t-68.5 202.5q0 92 24.5 175t71.5 146.5t114 100t151 36.5q122 0 189.5 -75t67.5 -206q0 -93 -22.5 -175t-67 -144.5t-110.5 -98.5t-153 -36zM340 69q60 0 107 30t80 82.5t50.5 120.5t17.5 144q0 95 -45 147.5t-123 52.5q-60 0 -108 -29.5
t-82 -81t-52 -120t-18 -146.5q0 -94 46 -147t127 -53zM418 797q18 19 38.5 45t40 53t33.5 49h100v-10q-14 -17 -41.5 -46t-58.5 -57.5t-57 -46.5h-55v13z" />
    <glyph glyph-name="Ocircumflex" unicode="&#xd4;" horiz-adv-x="721" 
d="M337 -10q-128 0 -196.5 74.5t-68.5 202.5q0 92 24.5 175t71.5 146.5t114 100t151 36.5q122 0 189.5 -75t67.5 -206q0 -93 -22.5 -175t-67 -144.5t-110.5 -98.5t-153 -36zM340 69q60 0 107 30t80 82.5t50.5 120.5t17.5 144q0 95 -45 147.5t-123 52.5q-60 0 -108 -29.5
t-82 -81t-52 -120t-18 -146.5q0 -94 46 -147t127 -53zM307 797q17 16 45 42t54.5 54.5t40.5 50.5h85q15 -39 40 -78.5t44 -68.5v-13h-55q-18 16 -38.5 40t-40.5 51q-30 -27 -60.5 -50.5t-56.5 -40.5h-58v13z" />
    <glyph glyph-name="Otilde" unicode="&#xd5;" horiz-adv-x="721" 
d="M337 -10q-128 0 -196.5 74.5t-68.5 202.5q0 92 24.5 175t71.5 146.5t114 100t151 36.5q122 0 189.5 -75t67.5 -206q0 -93 -22.5 -175t-67 -144.5t-110.5 -98.5t-153 -36zM340 69q60 0 107 30t80 82.5t50.5 120.5t17.5 144q0 95 -45 147.5t-123 52.5q-60 0 -108 -29.5
t-82 -81t-52 -120t-18 -146.5q0 -94 46 -147t127 -53zM301 784q14 62 43 95t72 33q29 0 54 -13.5t46 -27.5t38 -14q22 0 34 13t24 43h53q-16 -62 -45 -95t-72 -33q-26 0 -50 14t-45.5 27.5t-43.5 13.5q-21 0 -33 -14t-23 -42h-52z" />
    <glyph glyph-name="Odieresis" unicode="&#xd6;" horiz-adv-x="721" 
d="M337 -10q-128 0 -196.5 74.5t-68.5 202.5q0 92 24.5 175t71.5 146.5t114 100t151 36.5q122 0 189.5 -75t67.5 -206q0 -93 -22.5 -175t-67 -144.5t-110.5 -98.5t-153 -36zM340 69q60 0 107 30t80 82.5t50.5 120.5t17.5 144q0 95 -45 147.5t-123 52.5q-60 0 -108 -29.5
t-82 -81t-52 -120t-18 -146.5q0 -94 46 -147t127 -53zM572 809q-18 0 -30 11t-12 31q0 23 14 40t39 17q20 0 30 -11t10 -29q0 -28 -16 -43.5t-35 -15.5zM393 809q-19 0 -31 11t-12 31q0 23 14 40t39 17q21 0 30.5 -11t9.5 -29q0 -28 -15.5 -43.5t-34.5 -15.5z" />
    <glyph glyph-name="multiply" unicode="&#xd7;" horiz-adv-x="572" 
d="M476 574l50 -51l-170 -170l169 -170l-50 -51l-171 169l-167 -169l-52 51l169 170l-170 169l52 52l169 -171z" />
    <glyph glyph-name="Oslash" unicode="&#xd8;" horiz-adv-x="721" 
d="M114 -41l-57 46l66 82q-26 35 -38.5 81t-12.5 99q0 92 24.5 175t71.5 146.5t114 100t151 36.5q93 0 160 -52l63 79l58 -46l-72 -88q23 -31 35.5 -76.5t12.5 -97.5q0 -93 -22.5 -175t-67 -144.5t-110.5 -98.5t-153 -36q-96 0 -161 46zM538 606q-21 20 -48.5 30.5
t-62.5 10.5q-60 0 -108 -29.5t-82.5 -81.5t-52.5 -120.5t-18 -146.5q0 -61 19 -105zM340 69q60 0 107.5 30t80.5 82.5t50.5 120.5t17.5 144q0 27 -4 51t-11 43l-352 -437q20 -16 48.5 -25t62.5 -9z" />
    <glyph glyph-name="Ugrave" unicode="&#xd9;" horiz-adv-x="677" 
d="M300 -10q-112 0 -166.5 51.5t-54.5 146.5q0 17 3 42t9 53l92 431h89l-93 -436q-5 -23 -8 -48t-3 -41q0 -56 34.5 -88t102.5 -32q89 0 132.5 46t62.5 135l99 464h89l-100 -471q-16 -78 -50.5 -135t-92.5 -87.5t-145 -30.5zM452 784q-19 19 -40.5 46t-40.5 55t-29 49v10h94
q11 -37 30.5 -75.5t39.5 -72.5v-12h-54z" />
    <glyph glyph-name="Uacute" unicode="&#xda;" horiz-adv-x="677" 
d="M300 -10q-112 0 -166.5 51.5t-54.5 146.5q0 17 3 42t9 53l92 431h89l-93 -436q-5 -23 -8 -48t-3 -41q0 -56 34.5 -88t102.5 -32q89 0 132.5 46t62.5 135l99 464h89l-100 -471q-16 -78 -50.5 -135t-92.5 -87.5t-145 -30.5zM396 797q18 19 38.5 45t40 53t33.5 49h100v-10
q-14 -17 -41.5 -46t-58.5 -57.5t-57 -46.5h-55v13z" />
    <glyph glyph-name="Ucircumflex" unicode="&#xdb;" horiz-adv-x="677" 
d="M300 -10q-112 0 -166.5 51.5t-54.5 146.5q0 17 3 42t9 53l92 431h89l-93 -436q-5 -23 -8 -48t-3 -41q0 -56 34.5 -88t102.5 -32q89 0 132.5 46t62.5 135l99 464h89l-100 -471q-16 -78 -50.5 -135t-92.5 -87.5t-145 -30.5zM285 797q17 16 45 42t54.5 54.5t40.5 50.5h85
q15 -39 40 -78.5t44 -68.5v-13h-55q-18 16 -38.5 40t-40.5 51q-30 -27 -60.5 -50.5t-56.5 -40.5h-58v13z" />
    <glyph glyph-name="Udieresis" unicode="&#xdc;" horiz-adv-x="677" 
d="M300 -10q-112 0 -166.5 51.5t-54.5 146.5q0 17 3 42t9 53l92 431h89l-93 -436q-5 -23 -8 -48t-3 -41q0 -56 34.5 -88t102.5 -32q89 0 132.5 46t62.5 135l99 464h89l-100 -471q-16 -78 -50.5 -135t-92.5 -87.5t-145 -30.5zM550 809q-18 0 -30 11t-12 31q0 23 14 40t39 17
q20 0 30 -11t10 -29q0 -28 -16 -43.5t-35 -15.5zM371 809q-19 0 -31 11t-12 31q0 23 14 40t39 17q21 0 30.5 -11t9.5 -29q0 -28 -15.5 -43.5t-34.5 -15.5z" />
    <glyph glyph-name="Yacute" unicode="&#xdd;" horiz-adv-x="509" 
d="M150 0l58 268l-116 446h89l85 -358l234 358h101l-306 -449l-55 -265h-90zM312 797q18 19 38.5 45t40 53t33.5 49h100v-10q-14 -17 -41.5 -46t-58.5 -57.5t-57 -46.5h-55v13z" />
    <glyph glyph-name="Thorn" unicode="&#xde;" horiz-adv-x="567" 
d="M41 0l151 714h89l-26 -124h72q115 0 165 -51t50 -135q0 -121 -80.5 -185t-235.5 -64h-63l-33 -155h-89zM241 231q95 0 152 41t57 129q0 60 -33.5 86t-101.5 26h-77l-60 -282h63z" />
    <glyph glyph-name="germandbls" unicode="&#xdf;" horiz-adv-x="584" 
d="M-64 -240q-36 0 -61 10v75q25 -11 54 -11q32 0 52.5 23t31.5 75l136 638q21 98 77 146.5t153 48.5q78 0 125 -34t47 -99q0 -52 -30 -87t-67 -63q-31 -23 -57 -45t-26 -49q0 -15 11.5 -28.5t26.5 -24.5t25 -19q38 -32 61 -64t23 -79q0 -64 -28 -104.5t-73 -59.5t-98 -19
q-45 0 -78 9.5t-54 25.5v81q21 -16 54 -30t67 -14q60 0 90 29.5t30 71.5q0 33 -15 54t-50 49q-42 32 -60 59t-18 58q0 34 14 58.5t36 43t45 34.5q33 23 59 47.5t26 59.5q0 32 -26 49.5t-68 17.5q-58 0 -90 -31t-45 -92l-133 -632q-18 -83 -55.5 -130.5t-111.5 -47.5z" />
    <glyph glyph-name="agrave" unicode="&#xe0;" horiz-adv-x="568" 
d="M193 -10q-64 0 -104.5 46.5t-40.5 136.5q0 75 19.5 142.5t54.5 119t83 81.5t106 30q53 0 86 -28t49 -65h5l32 83h67l-114 -536h-70l13 99h-4q-34 -44 -80 -76.5t-102 -32.5zM222 63q37 0 72.5 27t64.5 73t44 103q8 29 10.5 53.5t2.5 45.5q0 47 -26 77t-70 30
q-39 0 -72 -24.5t-58 -67t-38.5 -96.5t-13.5 -113q0 -54 22 -81t62 -27zM359 606q-19 19 -40.5 46t-40.5 55t-29 49v10h94q11 -37 30.5 -75.5t39.5 -72.5v-12h-54z" />
    <glyph glyph-name="aacute" unicode="&#xe1;" horiz-adv-x="568" 
d="M193 -10q-64 0 -104.5 46.5t-40.5 136.5q0 75 19.5 142.5t54.5 119t83 81.5t106 30q53 0 86 -28t49 -65h5l32 83h67l-114 -536h-70l13 99h-4q-34 -44 -80 -76.5t-102 -32.5zM222 63q37 0 72.5 27t64.5 73t44 103q8 29 10.5 53.5t2.5 45.5q0 47 -26 77t-70 30
q-39 0 -72 -24.5t-58 -67t-38.5 -96.5t-13.5 -113q0 -54 22 -81t62 -27zM303 619q18 19 38.5 45t40 53t33.5 49h100v-10q-14 -17 -41.5 -46t-58.5 -57.5t-57 -46.5h-55v13z" />
    <glyph glyph-name="acircumflex" unicode="&#xe2;" horiz-adv-x="568" 
d="M193 -10q-64 0 -104.5 46.5t-40.5 136.5q0 75 19.5 142.5t54.5 119t83 81.5t106 30q53 0 86 -28t49 -65h5l32 83h67l-114 -536h-70l13 99h-4q-34 -44 -80 -76.5t-102 -32.5zM222 63q37 0 72.5 27t64.5 73t44 103q8 29 10.5 53.5t2.5 45.5q0 47 -26 77t-70 30
q-39 0 -72 -24.5t-58 -67t-38.5 -96.5t-13.5 -113q0 -54 22 -81t62 -27zM192 619q17 16 45 42t54.5 54.5t40.5 50.5h85q15 -39 40 -78.5t44 -68.5v-13h-55q-18 16 -38.5 40t-40.5 51q-30 -27 -60.5 -50.5t-56.5 -40.5h-58v13z" />
    <glyph glyph-name="atilde" unicode="&#xe3;" horiz-adv-x="568" 
d="M193 -10q-64 0 -104.5 46.5t-40.5 136.5q0 75 19.5 142.5t54.5 119t83 81.5t106 30q53 0 86 -28t49 -65h5l32 83h67l-114 -536h-70l13 99h-4q-34 -44 -80 -76.5t-102 -32.5zM222 63q37 0 72.5 27t64.5 73t44 103q8 29 10.5 53.5t2.5 45.5q0 47 -26 77t-70 30
q-39 0 -72 -24.5t-58 -67t-38.5 -96.5t-13.5 -113q0 -54 22 -81t62 -27zM186 606q14 62 43 95t72 33q29 0 54 -13.5t46 -27.5t38 -14q22 0 34 13t24 43h53q-16 -62 -45 -95t-72 -33q-26 0 -50 14t-45.5 27.5t-43.5 13.5q-21 0 -33 -14t-23 -42h-52z" />
    <glyph glyph-name="adieresis" unicode="&#xe4;" horiz-adv-x="568" 
d="M193 -10q-64 0 -104.5 46.5t-40.5 136.5q0 75 19.5 142.5t54.5 119t83 81.5t106 30q53 0 86 -28t49 -65h5l32 83h67l-114 -536h-70l13 99h-4q-34 -44 -80 -76.5t-102 -32.5zM222 63q37 0 72.5 27t64.5 73t44 103q8 29 10.5 53.5t2.5 45.5q0 47 -26 77t-70 30
q-39 0 -72 -24.5t-58 -67t-38.5 -96.5t-13.5 -113q0 -54 22 -81t62 -27zM452 631q-18 0 -30 11t-12 31q0 23 14 40t39 17q20 0 30 -11t10 -29q0 -28 -16 -43.5t-35 -15.5zM273 631q-19 0 -31 11t-12 31q0 23 14 40t39 17q21 0 30.5 -11t9.5 -29q0 -28 -15.5 -43.5
t-34.5 -15.5z" />
    <glyph glyph-name="aring" unicode="&#xe5;" horiz-adv-x="568" 
d="M193 -10q-64 0 -104.5 46.5t-40.5 136.5q0 75 19.5 142.5t54.5 119t83 81.5t106 30q53 0 86 -28t49 -65h5l32 83h67l-114 -536h-70l13 99h-4q-34 -44 -80 -76.5t-102 -32.5zM222 63q37 0 72.5 27t64.5 73t44 103q8 29 10.5 53.5t2.5 45.5q0 47 -26 77t-70 30
q-39 0 -72 -24.5t-58 -67t-38.5 -96.5t-13.5 -113q0 -54 22 -81t62 -27zM361 606q-48 0 -78 27.5t-30 77.5t32 77t76 27q48 0 78.5 -27t30.5 -76q0 -51 -31 -78.5t-78 -27.5zM361 656q25 0 40.5 15t15.5 40q0 26 -15.5 40.5t-40.5 14.5q-23 0 -39 -14.5t-16 -40.5
q0 -25 14.5 -40t40.5 -15z" />
    <glyph glyph-name="ae" unicode="&#xe6;" horiz-adv-x="820" 
d="M177 -10q-58 0 -93.5 47t-35.5 135q0 76 19.5 143.5t54 119.5t81 81.5t100.5 29.5q48 0 77 -27.5t45 -65.5h5l33 83h56l-14 -69q26 35 66 57t94 22q53 0 93 -30.5t40 -94.5q0 -52 -32 -95t-101 -68.5t-179 -25.5h-20q-1 -9 -1.5 -19t-0.5 -18q0 -61 30 -96.5t93 -35.5
q37 0 71.5 12t73.5 29v-77q-40 -18 -78.5 -27.5t-82.5 -9.5q-52 0 -92 19t-60 57l-14 -66h-59l12 99h-4q-40 -49 -80.5 -79t-96.5 -30zM488 303q60 0 111 10.5t81.5 34.5t30.5 64q0 32 -18.5 46.5t-44.5 14.5q-55 0 -100.5 -44.5t-68.5 -125.5h9zM206 63q36 0 70.5 27
t62.5 73t44 104q8 28 10.5 52.5t2.5 45.5q0 47 -21.5 77t-59.5 30q-37 0 -69 -24.5t-56.5 -66.5t-38 -96t-13.5 -113q0 -55 18 -82t50 -27z" />
    <glyph glyph-name="ccedilla" unicode="&#xe7;" horiz-adv-x="453" 
d="M247 -10q-89 0 -144 50t-55 150q0 72 19.5 136.5t56 113.5t88.5 77.5t116 28.5q35 0 70 -7t63 -19l-25 -73q-20 9 -47.5 17t-59.5 8q-57 0 -100 -38.5t-67 -102.5t-24 -140q0 -61 31.5 -94.5t86.5 -33.5q35 0 66.5 10t62.5 23v-74q-28 -14 -62.5 -23t-75.5 -9zM138 -240
q-27 0 -45 5v52q10 -2 19.5 -3t16.5 -1q82 0 82 53q0 22 -18.5 32t-48.5 14l48 88h56l-29 -57q23 -7 43.5 -23.5t20.5 -53.5q0 -45 -37 -75.5t-108 -30.5z" />
    <glyph glyph-name="egrave" unicode="&#xe8;" horiz-adv-x="499" 
d="M242 -10q-93 0 -143.5 54.5t-50.5 147.5q0 64 18.5 126.5t53.5 114t84.5 82.5t111.5 31q76 0 114.5 -33t38.5 -92q0 -52 -32.5 -95t-101.5 -68.5t-179 -25.5h-17q-1 -9 -1.5 -19t-0.5 -18q0 -61 30 -96.5t91 -35.5q38 0 72 11t74 30v-75q-38 -17 -74.5 -28t-87.5 -11z
M159 303q60 0 111 10.5t82 35t31 65.5q0 26 -17.5 42.5t-54.5 16.5q-48 0 -92.5 -44.5t-66.5 -125.5h7zM332 606q-19 19 -40.5 46t-40.5 55t-29 49v10h94q11 -37 30.5 -75.5t39.5 -72.5v-12h-54z" />
    <glyph glyph-name="eacute" unicode="&#xe9;" horiz-adv-x="499" 
d="M242 -10q-93 0 -143.5 54.5t-50.5 147.5q0 64 18.5 126.5t53.5 114t84.5 82.5t111.5 31q76 0 114.5 -33t38.5 -92q0 -52 -32.5 -95t-101.5 -68.5t-179 -25.5h-17q-1 -9 -1.5 -19t-0.5 -18q0 -61 30 -96.5t91 -35.5q38 0 72 11t74 30v-75q-38 -17 -74.5 -28t-87.5 -11z
M159 303q60 0 111 10.5t82 35t31 65.5q0 26 -17.5 42.5t-54.5 16.5q-48 0 -92.5 -44.5t-66.5 -125.5h7zM276 619q18 19 38.5 45t40 53t33.5 49h100v-10q-14 -17 -41.5 -46t-58.5 -57.5t-57 -46.5h-55v13z" />
    <glyph glyph-name="ecircumflex" unicode="&#xea;" horiz-adv-x="499" 
d="M242 -10q-93 0 -143.5 54.5t-50.5 147.5q0 64 18.5 126.5t53.5 114t84.5 82.5t111.5 31q76 0 114.5 -33t38.5 -92q0 -52 -32.5 -95t-101.5 -68.5t-179 -25.5h-17q-1 -9 -1.5 -19t-0.5 -18q0 -61 30 -96.5t91 -35.5q38 0 72 11t74 30v-75q-38 -17 -74.5 -28t-87.5 -11z
M159 303q60 0 111 10.5t82 35t31 65.5q0 26 -17.5 42.5t-54.5 16.5q-48 0 -92.5 -44.5t-66.5 -125.5h7zM165 619q17 16 45 42t54.5 54.5t40.5 50.5h85q15 -39 40 -78.5t44 -68.5v-13h-55q-18 16 -38.5 40t-40.5 51q-30 -27 -60.5 -50.5t-56.5 -40.5h-58v13z" />
    <glyph glyph-name="edieresis" unicode="&#xeb;" horiz-adv-x="499" 
d="M242 -10q-93 0 -143.5 54.5t-50.5 147.5q0 64 18.5 126.5t53.5 114t84.5 82.5t111.5 31q76 0 114.5 -33t38.5 -92q0 -52 -32.5 -95t-101.5 -68.5t-179 -25.5h-17q-1 -9 -1.5 -19t-0.5 -18q0 -61 30 -96.5t91 -35.5q38 0 72 11t74 30v-75q-38 -17 -74.5 -28t-87.5 -11z
M159 303q60 0 111 10.5t82 35t31 65.5q0 26 -17.5 42.5t-54.5 16.5q-48 0 -92.5 -44.5t-66.5 -125.5h7zM425 631q-18 0 -30 11t-12 31q0 23 14 40t39 17q20 0 30 -11t10 -29q0 -28 -16 -43.5t-35 -15.5zM246 631q-19 0 -31 11t-12 31q0 23 14 40t39 17q21 0 30.5 -11
t9.5 -29q0 -28 -15.5 -43.5t-34.5 -15.5z" />
    <glyph glyph-name="igrave" unicode="&#xec;" horiz-adv-x="258" 
d="M28 0l114 536h88l-114 -536h-88zM204 606q-19 19 -40.5 46t-40.5 55t-29 49v10h94q11 -37 30.5 -75.5t39.5 -72.5v-12h-54z" />
    <glyph glyph-name="iacute" unicode="&#xed;" horiz-adv-x="258" 
d="M28 0l114 536h88l-114 -536h-88zM148 619q18 19 38.5 45t40 53t33.5 49h100v-10q-14 -17 -41.5 -46t-58.5 -57.5t-57 -46.5h-55v13z" />
    <glyph glyph-name="icircumflex" unicode="&#xee;" horiz-adv-x="258" 
d="M28 0l114 536h88l-114 -536h-88zM37 619q17 16 45 42t54.5 54.5t40.5 50.5h85q15 -39 40 -78.5t44 -68.5v-13h-55q-18 16 -38.5 40t-40.5 51q-30 -27 -60.5 -50.5t-56.5 -40.5h-58v13z" />
    <glyph glyph-name="idieresis" unicode="&#xef;" horiz-adv-x="258" 
d="M28 0l114 536h88l-114 -536h-88zM297 631q-18 0 -30 11t-12 31q0 23 14 40t39 17q20 0 30 -11t10 -29q0 -28 -16 -43.5t-35 -15.5zM118 631q-19 0 -31 11t-12 31q0 23 14 40t39 17q21 0 30.5 -11t9.5 -29q0 -28 -15.5 -43.5t-34.5 -15.5z" />
    <glyph glyph-name="eth" unicode="&#xf0;" horiz-adv-x="570" 
d="M235 -10q-89 0 -140.5 50.5t-51.5 142.5q0 77 31.5 143t88.5 106.5t135 40.5q58 0 92 -24.5t49 -56.5l3 1q1 56 -13 108.5t-57 104.5l-130 -72l-29 54l114 63q-15 14 -32.5 27.5t-37.5 26.5l47 60q23 -16 47.5 -33.5t46.5 -40.5l126 70l32 -53l-115 -64q35 -45 57.5 -104
t22.5 -142q0 -72 -14.5 -144t-47.5 -132t-88 -96t-136 -36zM240 63q50 0 84 22.5t54.5 57.5t29.5 72t9 65q0 29 -11 57t-36 46t-68 18q-60 0 -97 -32t-54.5 -82t-17.5 -103q0 -52 24.5 -86.5t82.5 -34.5z" />
    <glyph glyph-name="ntilde" unicode="&#xf1;" horiz-adv-x="579" 
d="M24 0l115 539h78l-11 -99h1q19 25 44.5 50t59.5 42t77 17q65 0 101.5 -35.5t36.5 -99.5q0 -23 -3.5 -47t-7.5 -42l-71 -325h-94l72 337q5 23 7.5 38.5t2.5 29.5q0 64 -68 64q-33 0 -71.5 -23t-72 -75t-52.5 -140l-50 -231h-94zM194 606q14 62 43 95t72 33q29 0 54 -13.5
t46 -27.5t38 -14q22 0 34 13t24 43h53q-16 -62 -45 -95t-72 -33q-26 0 -50 14t-45.5 27.5t-43.5 13.5q-21 0 -33 -14t-23 -42h-52z" />
    <glyph glyph-name="ograve" unicode="&#xf2;" horiz-adv-x="563" 
d="M248 -8q-93 0 -146.5 55.5t-53.5 150.5q0 62 17 123t50.5 111t84 80.5t116.5 30.5q94 0 147 -55.5t53 -151.5q0 -61 -17 -122t-50.5 -111t-83.5 -80.5t-117 -30.5zM253 65q48 0 87 33.5t62.5 96.5t23.5 151q0 30 -10.5 58.5t-34.5 47t-64 18.5q-55 0 -95.5 -37.5
t-62.5 -100t-22 -137.5q0 -62 30.5 -96t85.5 -34zM340 606q-19 19 -40.5 46t-40.5 55t-29 49v10h94q11 -37 30.5 -75.5t39.5 -72.5v-12h-54z" />
    <glyph glyph-name="oacute" unicode="&#xf3;" horiz-adv-x="563" 
d="M248 -8q-93 0 -146.5 55.5t-53.5 150.5q0 62 17 123t50.5 111t84 80.5t116.5 30.5q94 0 147 -55.5t53 -151.5q0 -61 -17 -122t-50.5 -111t-83.5 -80.5t-117 -30.5zM253 65q48 0 87 33.5t62.5 96.5t23.5 151q0 30 -10.5 58.5t-34.5 47t-64 18.5q-55 0 -95.5 -37.5
t-62.5 -100t-22 -137.5q0 -62 30.5 -96t85.5 -34zM284 619q18 19 38.5 45t40 53t33.5 49h100v-10q-14 -17 -41.5 -46t-58.5 -57.5t-57 -46.5h-55v13z" />
    <glyph glyph-name="ocircumflex" unicode="&#xf4;" horiz-adv-x="563" 
d="M248 -8q-93 0 -146.5 55.5t-53.5 150.5q0 62 17 123t50.5 111t84 80.5t116.5 30.5q94 0 147 -55.5t53 -151.5q0 -61 -17 -122t-50.5 -111t-83.5 -80.5t-117 -30.5zM253 65q48 0 87 33.5t62.5 96.5t23.5 151q0 30 -10.5 58.5t-34.5 47t-64 18.5q-55 0 -95.5 -37.5
t-62.5 -100t-22 -137.5q0 -62 30.5 -96t85.5 -34zM173 619q17 16 45 42t54.5 54.5t40.5 50.5h85q15 -39 40 -78.5t44 -68.5v-13h-55q-18 16 -38.5 40t-40.5 51q-30 -27 -60.5 -50.5t-56.5 -40.5h-58v13z" />
    <glyph glyph-name="otilde" unicode="&#xf5;" horiz-adv-x="563" 
d="M248 -8q-93 0 -146.5 55.5t-53.5 150.5q0 62 17 123t50.5 111t84 80.5t116.5 30.5q94 0 147 -55.5t53 -151.5q0 -61 -17 -122t-50.5 -111t-83.5 -80.5t-117 -30.5zM253 65q48 0 87 33.5t62.5 96.5t23.5 151q0 30 -10.5 58.5t-34.5 47t-64 18.5q-55 0 -95.5 -37.5
t-62.5 -100t-22 -137.5q0 -62 30.5 -96t85.5 -34zM167 606q14 62 43 95t72 33q29 0 54 -13.5t46 -27.5t38 -14q22 0 34 13t24 43h53q-16 -62 -45 -95t-72 -33q-26 0 -50 14t-45.5 27.5t-43.5 13.5q-21 0 -33 -14t-23 -42h-52z" />
    <glyph glyph-name="odieresis" unicode="&#xf6;" horiz-adv-x="563" 
d="M248 -8q-93 0 -146.5 55.5t-53.5 150.5q0 62 17 123t50.5 111t84 80.5t116.5 30.5q94 0 147 -55.5t53 -151.5q0 -61 -17 -122t-50.5 -111t-83.5 -80.5t-117 -30.5zM253 65q48 0 87 33.5t62.5 96.5t23.5 151q0 30 -10.5 58.5t-34.5 47t-64 18.5q-55 0 -95.5 -37.5
t-62.5 -100t-22 -137.5q0 -62 30.5 -96t85.5 -34zM433 631q-18 0 -30 11t-12 31q0 23 14 40t39 17q20 0 30 -11t10 -29q0 -28 -16 -43.5t-35 -15.5zM254 631q-19 0 -31 11t-12 31q0 23 14 40t39 17q21 0 30.5 -11t9.5 -29q0 -28 -15.5 -43.5t-34.5 -15.5z" />
    <glyph glyph-name="divide" unicode="&#xf7;" horiz-adv-x="572" 
d="M305 462q-23 0 -39.5 14.5t-16.5 46.5q0 34 16.5 47t39.5 13t39 -13t16 -47q0 -32 -16 -46.5t-39 -14.5zM70 317v71h471v-71h-471zM305 121q-23 0 -39.5 14.5t-16.5 46.5q0 34 16.5 47t39.5 13t39 -13t16 -47q0 -32 -16 -46.5t-39 -14.5z" />
    <glyph glyph-name="oslash" unicode="&#xf8;" horiz-adv-x="563" 
d="M82 -38l-53 41l54 67q-34 50 -34 128q0 62 17 123t50.5 111t83.5 80.5t116 30.5q73 0 122 -32l49 61l53 -40l-56 -62q16 -24 23 -58t7 -68q0 -61 -16.5 -123.5t-49.5 -114t-83 -83t-116 -31.5q-69 0 -119 31zM388 449q-11 9 -28 15.5t-43 6.5q-55 0 -96.5 -37.5t-64 -98
t-22.5 -131.5q0 -42 8 -61zM253 63q48 0 88 33t64 94t24 145q0 17 -1.5 31t-4.5 22l-244 -304q14 -10 33 -15.5t41 -5.5z" />
    <glyph glyph-name="ugrave" unicode="&#xf9;" horiz-adv-x="579" 
d="M189 -10q-61 0 -97.5 34t-36.5 99q0 23 3.5 43.5t7.5 42.5l70 327h89l-72 -337q-9 -43 -9 -67q0 -32 16.5 -50.5t53.5 -18.5q34 0 73.5 24t73.5 77t53 141l49 231h87l-114 -536h-72l11 99h-5q-19 -24 -44.5 -49.5t-59 -42.5t-77.5 -17zM365 606q-19 19 -40.5 46t-40.5 55
t-29 49v10h94q11 -37 30.5 -75.5t39.5 -72.5v-12h-54z" />
    <glyph glyph-name="uacute" unicode="&#xfa;" horiz-adv-x="579" 
d="M189 -10q-61 0 -97.5 34t-36.5 99q0 23 3.5 43.5t7.5 42.5l70 327h89l-72 -337q-9 -43 -9 -67q0 -32 16.5 -50.5t53.5 -18.5q34 0 73.5 24t73.5 77t53 141l49 231h87l-114 -536h-72l11 99h-5q-19 -24 -44.5 -49.5t-59 -42.5t-77.5 -17zM309 619q18 19 38.5 45t40 53
t33.5 49h100v-10q-14 -17 -41.5 -46t-58.5 -57.5t-57 -46.5h-55v13z" />
    <glyph glyph-name="ucircumflex" unicode="&#xfb;" horiz-adv-x="579" 
d="M189 -10q-61 0 -97.5 34t-36.5 99q0 23 3.5 43.5t7.5 42.5l70 327h89l-72 -337q-9 -43 -9 -67q0 -32 16.5 -50.5t53.5 -18.5q34 0 73.5 24t73.5 77t53 141l49 231h87l-114 -536h-72l11 99h-5q-19 -24 -44.5 -49.5t-59 -42.5t-77.5 -17zM198 619q17 16 45 42t54.5 54.5
t40.5 50.5h85q15 -39 40 -78.5t44 -68.5v-13h-55q-18 16 -38.5 40t-40.5 51q-30 -27 -60.5 -50.5t-56.5 -40.5h-58v13z" />
    <glyph glyph-name="udieresis" unicode="&#xfc;" horiz-adv-x="579" 
d="M189 -10q-61 0 -97.5 34t-36.5 99q0 23 3.5 43.5t7.5 42.5l70 327h89l-72 -337q-9 -43 -9 -67q0 -32 16.5 -50.5t53.5 -18.5q34 0 73.5 24t73.5 77t53 141l49 231h87l-114 -536h-72l11 99h-5q-19 -24 -44.5 -49.5t-59 -42.5t-77.5 -17zM458 631q-18 0 -30 11t-12 31
q0 23 14 40t39 17q20 0 30 -11t10 -29q0 -28 -16 -43.5t-35 -15.5zM279 631q-19 0 -31 11t-12 31q0 23 14 40t39 17q21 0 30.5 -11t9.5 -29q0 -28 -15.5 -43.5t-34.5 -15.5z" />
    <glyph glyph-name="yacute" unicode="&#xfd;" horiz-adv-x="467" 
d="M-25 -240q-24 0 -39.5 3t-29.5 7v71q14 -4 30 -6.5t34 -2.5q41 0 69.5 25t54.5 73l35 62l-81 544h88l35 -265q5 -32 7.5 -70.5t4 -73t1.5 -55.5h3q7 16 20.5 48t29.5 66t28 56l156 294h94l-340 -626q-40 -75 -84.5 -112.5t-115.5 -37.5zM234 619q18 19 38.5 45t40 53
t33.5 49h100v-10q-14 -17 -41.5 -46t-58.5 -57.5t-57 -46.5h-55v13z" />
    <glyph glyph-name="thorn" unicode="&#xfe;" horiz-adv-x="579" 
d="M-22 -240l211 1000h88l-38 -179q-10 -43 -19.5 -80t-17.5 -65h4q36 44 79 76.5t99 32.5q66 0 106 -46.5t40 -136.5q0 -73 -18 -139.5t-51.5 -119t-81.5 -83t-109 -30.5q-54 0 -88 27.5t-51 64.5h-5q-1 -15 -4.5 -44t-7.5 -47l-49 -231h-87zM262 63q40 0 73 25.5
t56.5 68.5t36 97t12.5 110q0 108 -85 108q-35 0 -72 -27.5t-67 -75t-45 -107.5q-11 -46 -11 -91q0 -48 24.5 -78t77.5 -30z" />
    <glyph glyph-name="ydieresis" unicode="&#xff;" horiz-adv-x="467" 
d="M-25 -240q-24 0 -39.5 3t-29.5 7v71q14 -4 30 -6.5t34 -2.5q41 0 69.5 25t54.5 73l35 62l-81 544h88l35 -265q5 -32 7.5 -70.5t4 -73t1.5 -55.5h3q7 16 20.5 48t29.5 66t28 56l156 294h94l-340 -626q-40 -75 -84.5 -112.5t-115.5 -37.5zM383 631q-18 0 -30 11t-12 31
q0 23 14 40t39 17q20 0 30 -11t10 -29q0 -28 -16 -43.5t-35 -15.5zM204 631q-19 0 -31 11t-12 31q0 23 14 40t39 17q21 0 30.5 -11t9.5 -29q0 -28 -15.5 -43.5t-34.5 -15.5z" />
    <glyph glyph-name="Amacron" unicode="&#x100;" horiz-adv-x="562" 
d="M-57 0l388 714h94l88 -714h-88l-27 222h-241l-116 -222h-98zM200 302h189l-16 150q-4 38 -7.5 84t-4.5 81h-3q-16 -38 -37 -81.5t-44 -87.5zM252 784l15 71h269l-15 -71h-269z" />
    <glyph glyph-name="amacron" unicode="&#x101;" horiz-adv-x="568" 
d="M193 -10q-64 0 -104.5 46.5t-40.5 136.5q0 75 19.5 142.5t54.5 119t83 81.5t106 30q53 0 86 -28t49 -65h5l32 83h67l-114 -536h-70l13 99h-4q-34 -44 -80 -76.5t-102 -32.5zM222 63q37 0 72.5 27t64.5 73t44 103q8 29 10.5 53.5t2.5 45.5q0 47 -26 77t-70 30
q-39 0 -72 -24.5t-58 -67t-38.5 -96.5t-13.5 -113q0 -54 22 -81t62 -27zM217 606l15 71h269l-15 -71h-269z" />
    <glyph glyph-name="Abreve" unicode="&#x102;" horiz-adv-x="562" 
d="M-57 0l388 714h94l88 -714h-88l-27 222h-241l-116 -222h-98zM200 302h189l-16 150q-4 38 -7.5 84t-4.5 81h-3q-16 -38 -37 -81.5t-44 -87.5zM388 784q-54 0 -89 28.5t-35 83.5v10.5t1 11.5h52q0 -29 18 -45t62 -16q46 0 69 16.5t30 44.5h55q-16 -72 -58 -103t-105 -31z
" />
    <glyph glyph-name="abreve" unicode="&#x103;" horiz-adv-x="568" 
d="M193 -10q-64 0 -104.5 46.5t-40.5 136.5q0 75 19.5 142.5t54.5 119t83 81.5t106 30q53 0 86 -28t49 -65h5l32 83h67l-114 -536h-70l13 99h-4q-34 -44 -80 -76.5t-102 -32.5zM222 63q37 0 72.5 27t64.5 73t44 103q8 29 10.5 53.5t2.5 45.5q0 47 -26 77t-70 30
q-39 0 -72 -24.5t-58 -67t-38.5 -96.5t-13.5 -113q0 -54 22 -81t62 -27zM353 606q-54 0 -89 28.5t-35 83.5v10.5t1 11.5h52q0 -29 18 -45t62 -16q46 0 69 16.5t30 44.5h55q-16 -72 -58 -103t-105 -31z" />
    <glyph glyph-name="Aogonek" unicode="&#x104;" horiz-adv-x="562" 
d="M-57 0l388 714h94l88 -714h-88l-27 222h-241l-116 -222h-98zM200 302h189l-16 150q-4 38 -7.5 84t-4.5 81h-3q-16 -38 -37 -81.5t-44 -87.5zM411 -217q-38 0 -63.5 19.5t-25.5 60.5q0 47 29.5 78t74.5 59h61q-19 -15 -41 -34.5t-37 -42t-15 -49.5q0 -33 33 -33
q11 0 21 1.5t19 2.5v-55q-13 -4 -27.5 -5.5t-28.5 -1.5z" />
    <glyph glyph-name="aogonek" unicode="&#x105;" horiz-adv-x="568" 
d="M193 -10q-64 0 -104.5 46.5t-40.5 136.5q0 75 19.5 142.5t54.5 119t83 81.5t106 30q53 0 86 -28t49 -65h5l32 83h67l-114 -536h-70l13 99h-4q-34 -44 -80 -76.5t-102 -32.5zM222 63q37 0 72.5 27t64.5 73t44 103q8 29 10.5 53.5t2.5 45.5q0 47 -26 77t-70 30
q-39 0 -72 -24.5t-58 -67t-38.5 -96.5t-13.5 -113q0 -54 22 -81t62 -27zM351 -217q-38 0 -63.5 19.5t-25.5 60.5q0 47 29.5 78t74.5 59h61q-19 -15 -41 -34.5t-37 -42t-15 -49.5q0 -33 33 -33q11 0 21 1.5t19 2.5v-55q-13 -4 -27.5 -5.5t-28.5 -1.5z" />
    <glyph glyph-name="Cacute" unicode="&#x106;" horiz-adv-x="587" 
d="M326 -10q-119 0 -186.5 73t-67.5 200q0 64 15 130t45.5 125t77 105.5t108.5 73.5t140 27q100 0 174 -40l-36 -74q-27 14 -60.5 24.5t-77.5 10.5q-75 0 -129.5 -33.5t-90.5 -89t-53.5 -122.5t-17.5 -135q0 -91 46.5 -143.5t128.5 -52.5q41 0 80.5 8t77.5 21v-78
q-39 -14 -78.5 -22t-95.5 -8zM406 797q18 19 38.5 45t40 53t33.5 49h100v-10q-14 -17 -41.5 -46t-58.5 -57.5t-57 -46.5h-55v13z" />
    <glyph glyph-name="cacute" unicode="&#x107;" horiz-adv-x="453" 
d="M247 -10q-89 0 -144 50t-55 150q0 72 19.5 136.5t56 113.5t88.5 77.5t116 28.5q35 0 70 -7t63 -19l-25 -73q-20 9 -47.5 17t-59.5 8q-57 0 -100 -38.5t-67 -102.5t-24 -140q0 -61 31.5 -94.5t86.5 -33.5q35 0 66.5 10t62.5 23v-74q-28 -14 -62.5 -23t-75.5 -9zM268 619
q18 19 38.5 45t40 53t33.5 49h100v-10q-14 -17 -41.5 -46t-58.5 -57.5t-57 -46.5h-55v13z" />
    <glyph glyph-name="Ccircumflex" unicode="&#x108;" horiz-adv-x="587" 
d="M326 -10q-119 0 -186.5 73t-67.5 200q0 64 15 130t45.5 125t77 105.5t108.5 73.5t140 27q100 0 174 -40l-36 -74q-27 14 -60.5 24.5t-77.5 10.5q-75 0 -129.5 -33.5t-90.5 -89t-53.5 -122.5t-17.5 -135q0 -91 46.5 -143.5t128.5 -52.5q41 0 80.5 8t77.5 21v-78
q-39 -14 -78.5 -22t-95.5 -8zM295 797q17 16 45 42t54.5 54.5t40.5 50.5h85q15 -39 40 -78.5t44 -68.5v-13h-55q-18 16 -38.5 40t-40.5 51q-30 -27 -60.5 -50.5t-56.5 -40.5h-58v13z" />
    <glyph glyph-name="ccircumflex" unicode="&#x109;" horiz-adv-x="453" 
d="M247 -10q-89 0 -144 50t-55 150q0 72 19.5 136.5t56 113.5t88.5 77.5t116 28.5q35 0 70 -7t63 -19l-25 -73q-20 9 -47.5 17t-59.5 8q-57 0 -100 -38.5t-67 -102.5t-24 -140q0 -61 31.5 -94.5t86.5 -33.5q35 0 66.5 10t62.5 23v-74q-28 -14 -62.5 -23t-75.5 -9zM157 619
q17 16 45 42t54.5 54.5t40.5 50.5h85q15 -39 40 -78.5t44 -68.5v-13h-55q-18 16 -38.5 40t-40.5 51q-30 -27 -60.5 -50.5t-56.5 -40.5h-58v13z" />
    <glyph glyph-name="Cdotaccent" unicode="&#x10a;" horiz-adv-x="587" 
d="M326 -10q-119 0 -186.5 73t-67.5 200q0 64 15 130t45.5 125t77 105.5t108.5 73.5t140 27q100 0 174 -40l-36 -74q-27 14 -60.5 24.5t-77.5 10.5q-75 0 -129.5 -33.5t-90.5 -89t-53.5 -122.5t-17.5 -135q0 -91 46.5 -143.5t128.5 -52.5q41 0 80.5 8t77.5 21v-78
q-39 -14 -78.5 -22t-95.5 -8zM466 803q-20 0 -34 12.5t-14 34.5q0 26 15.5 45t43.5 19q46 0 46 -45q0 -31 -18 -48.5t-39 -17.5z" />
    <glyph glyph-name="cdotaccent" unicode="&#x10b;" horiz-adv-x="453" 
d="M247 -10q-89 0 -144 50t-55 150q0 72 19.5 136.5t56 113.5t88.5 77.5t116 28.5q35 0 70 -7t63 -19l-25 -73q-20 9 -47.5 17t-59.5 8q-57 0 -100 -38.5t-67 -102.5t-24 -140q0 -61 31.5 -94.5t86.5 -33.5q35 0 66.5 10t62.5 23v-74q-28 -14 -62.5 -23t-75.5 -9zM328 625
q-20 0 -34 12.5t-14 34.5q0 26 15.5 45t43.5 19q46 0 46 -45q0 -31 -18 -48.5t-39 -17.5z" />
    <glyph glyph-name="Ccaron" unicode="&#x10c;" horiz-adv-x="587" 
d="M326 -10q-119 0 -186.5 73t-67.5 200q0 64 15 130t45.5 125t77 105.5t108.5 73.5t140 27q100 0 174 -40l-36 -74q-27 14 -60.5 24.5t-77.5 10.5q-75 0 -129.5 -33.5t-90.5 -89t-53.5 -122.5t-17.5 -135q0 -91 46.5 -143.5t128.5 -52.5q41 0 80.5 8t77.5 21v-78
q-39 -14 -78.5 -22t-95.5 -8zM412 784q-13 38 -38 78t-44 69v13h53q20 -16 40 -40t39 -51q31 27 62 50.5t58 40.5h57v-13q-17 -15 -45 -41.5t-54.5 -54.5t-41.5 -51h-86z" />
    <glyph glyph-name="ccaron" unicode="&#x10d;" horiz-adv-x="453" 
d="M247 -10q-89 0 -144 50t-55 150q0 72 19.5 136.5t56 113.5t88.5 77.5t116 28.5q35 0 70 -7t63 -19l-25 -73q-20 9 -47.5 17t-59.5 8q-57 0 -100 -38.5t-67 -102.5t-24 -140q0 -61 31.5 -94.5t86.5 -33.5q35 0 66.5 10t62.5 23v-74q-28 -14 -62.5 -23t-75.5 -9zM274 606
q-13 38 -38 78t-44 69v13h53q20 -16 40 -40t39 -51q31 27 62 50.5t58 40.5h57v-13q-17 -15 -45 -41.5t-54.5 -54.5t-41.5 -51h-86z" />
    <glyph glyph-name="Dcaron" unicode="&#x10e;" horiz-adv-x="667" 
d="M41 0l151 714h169q129 0 202 -70t73 -215q0 -124 -48.5 -221t-142 -152.5t-228.5 -55.5h-176zM222 77q104 0 175 47t108 127t37 179q0 110 -52.5 158.5t-139.5 48.5h-85l-119 -560h76zM397 784q-13 38 -38 78t-44 69v13h53q20 -16 40 -40t39 -51q31 27 62 50.5t58 40.5
h57v-13q-17 -15 -45 -41.5t-54.5 -54.5t-41.5 -51h-86z" />
    <glyph glyph-name="dcaron" unicode="&#x10f;" horiz-adv-x="613" 
d="M608 613q11 17 25 43t26.5 54.5t20.5 49.5h83v-10q-6 -16 -23 -43t-39 -56t-44 -51h-49v13zM193 -10q-64 0 -104.5 46t-40.5 137q0 74 18 140.5t52.5 119t83 82.5t109.5 30q54 0 86.5 -27.5t48.5 -64.5h5q5 34 9.5 65t12.5 67l37 175h87l-161 -760h-72l11 99h-4
q-36 -45 -79 -77t-99 -32zM223 63q33 0 67 24.5t63 66.5t46.5 96t17.5 114q0 48 -23.5 78t-76.5 30q-40 0 -72.5 -25.5t-56.5 -68.5t-37 -97t-13 -110q0 -108 85 -108z" />
    <glyph glyph-name="Dcroat" unicode="&#x110;" horiz-adv-x="667" 
d="M41 0l67 315h-75l17 77h74l68 322h169q129 0 202 -70t73 -215q0 -124 -48.5 -221t-142 -152.5t-228.5 -55.5h-176zM222 77q104 0 175 47t108 127t37 179q0 110 -52.5 158.5t-139.5 48.5h-85l-52 -245h157l-17 -77h-156l-51 -238h76z" />
    <glyph glyph-name="dcroat" unicode="&#x111;" horiz-adv-x="579" 
d="M193 -10q-64 0 -104.5 46t-40.5 137q0 73 18 140t51.5 119.5t81.5 83t109 30.5q55 0 88.5 -27.5t49.5 -63.5h5q2 18 5.5 42.5t7.5 46.5l12 60h-178l13 66h181l18 90h87l-19 -90h73l-14 -66h-73l-128 -604h-72l11 99h-4q-36 -44 -79 -76.5t-99 -32.5zM223 63q33 0 67 24.5
t63 66.5t46.5 96t17.5 114q0 49 -24 79t-77 30q-40 0 -73 -25.5t-56.5 -69t-36 -97.5t-12.5 -110q0 -108 85 -108z" />
    <glyph glyph-name="Emacron" unicode="&#x112;" horiz-adv-x="514" 
d="M41 0l151 714h362l-17 -79h-273l-47 -223h255l-15 -78h-256l-55 -255h274l-17 -79h-362zM246 784l15 71h269l-15 -71h-269z" />
    <glyph glyph-name="emacron" unicode="&#x113;" horiz-adv-x="499" 
d="M242 -10q-93 0 -143.5 54.5t-50.5 147.5q0 64 18.5 126.5t53.5 114t84.5 82.5t111.5 31q76 0 114.5 -33t38.5 -92q0 -52 -32.5 -95t-101.5 -68.5t-179 -25.5h-17q-1 -9 -1.5 -19t-0.5 -18q0 -61 30 -96.5t91 -35.5q38 0 72 11t74 30v-75q-38 -17 -74.5 -28t-87.5 -11z
M159 303q60 0 111 10.5t82 35t31 65.5q0 26 -17.5 42.5t-54.5 16.5q-48 0 -92.5 -44.5t-66.5 -125.5h7zM190 606l15 71h269l-15 -71h-269z" />
    <glyph glyph-name="Ebreve" unicode="&#x114;" horiz-adv-x="514" 
d="M41 0l151 714h362l-17 -79h-273l-47 -223h255l-15 -78h-256l-55 -255h274l-17 -79h-362zM382 784q-54 0 -89 28.5t-35 83.5v10.5t1 11.5h52q0 -29 18 -45t62 -16q46 0 69 16.5t30 44.5h55q-16 -72 -58 -103t-105 -31z" />
    <glyph glyph-name="ebreve" unicode="&#x115;" horiz-adv-x="499" 
d="M242 -10q-93 0 -143.5 54.5t-50.5 147.5q0 64 18.5 126.5t53.5 114t84.5 82.5t111.5 31q76 0 114.5 -33t38.5 -92q0 -52 -32.5 -95t-101.5 -68.5t-179 -25.5h-17q-1 -9 -1.5 -19t-0.5 -18q0 -61 30 -96.5t91 -35.5q38 0 72 11t74 30v-75q-38 -17 -74.5 -28t-87.5 -11z
M159 303q60 0 111 10.5t82 35t31 65.5q0 26 -17.5 42.5t-54.5 16.5q-48 0 -92.5 -44.5t-66.5 -125.5h7zM326 606q-54 0 -89 28.5t-35 83.5v10.5t1 11.5h52q0 -29 18 -45t62 -16q46 0 69 16.5t30 44.5h55q-16 -72 -58 -103t-105 -31z" />
    <glyph glyph-name="Edotaccent" unicode="&#x116;" horiz-adv-x="514" 
d="M41 0l151 714h362l-17 -79h-273l-47 -223h255l-15 -78h-256l-55 -255h274l-17 -79h-362zM392 803q-20 0 -34 12.5t-14 34.5q0 26 15.5 45t43.5 19q46 0 46 -45q0 -31 -18 -48.5t-39 -17.5z" />
    <glyph glyph-name="edotaccent" unicode="&#x117;" horiz-adv-x="499" 
d="M242 -10q-93 0 -143.5 54.5t-50.5 147.5q0 64 18.5 126.5t53.5 114t84.5 82.5t111.5 31q76 0 114.5 -33t38.5 -92q0 -52 -32.5 -95t-101.5 -68.5t-179 -25.5h-17q-1 -9 -1.5 -19t-0.5 -18q0 -61 30 -96.5t91 -35.5q38 0 72 11t74 30v-75q-38 -17 -74.5 -28t-87.5 -11z
M159 303q60 0 111 10.5t82 35t31 65.5q0 26 -17.5 42.5t-54.5 16.5q-48 0 -92.5 -44.5t-66.5 -125.5h7zM336 625q-20 0 -34 12.5t-14 34.5q0 26 15.5 45t43.5 19q46 0 46 -45q0 -31 -18 -48.5t-39 -17.5z" />
    <glyph glyph-name="Eogonek" unicode="&#x118;" horiz-adv-x="514" 
d="M41 0l151 714h362l-17 -79h-273l-47 -223h255l-15 -78h-256l-55 -255h274l-17 -79h-362zM299 -217q-38 0 -63.5 19.5t-25.5 60.5q0 47 29.5 78t74.5 59h61q-19 -15 -41 -34.5t-37 -42t-15 -49.5q0 -33 33 -33q11 0 21 1.5t19 2.5v-55q-13 -4 -27.5 -5.5t-28.5 -1.5z" />
    <glyph glyph-name="eogonek" unicode="&#x119;" horiz-adv-x="499" 
d="M242 -10q-93 0 -143.5 54.5t-50.5 147.5q0 64 18.5 126.5t53.5 114t84.5 82.5t111.5 31q76 0 114.5 -33t38.5 -92q0 -52 -32.5 -95t-101.5 -68.5t-179 -25.5h-17q-1 -9 -1.5 -19t-0.5 -18q0 -61 30 -96.5t91 -35.5q38 0 72 11t74 30v-75q-7 -3 -14.5 -6.5t-14.5 -6.5
q-41 -33 -74.5 -68.5t-33.5 -73.5q0 -33 33 -33q11 0 21 1.5t19 2.5v-55q-13 -4 -27.5 -5.5t-28.5 -1.5q-38 0 -63.5 19.5t-25.5 60.5q0 43 26 73.5t66 56.5q-21 -3 -45 -3zM159 303q60 0 111 10.5t82 35t31 65.5q0 26 -17.5 42.5t-54.5 16.5q-48 0 -92.5 -44.5
t-66.5 -125.5h7z" />
    <glyph glyph-name="Ecaron" unicode="&#x11a;" horiz-adv-x="514" 
d="M41 0l151 714h362l-17 -79h-273l-47 -223h255l-15 -78h-256l-55 -255h274l-17 -79h-362zM338 784q-13 38 -38 78t-44 69v13h53q20 -16 40 -40t39 -51q31 27 62 50.5t58 40.5h57v-13q-17 -15 -45 -41.5t-54.5 -54.5t-41.5 -51h-86z" />
    <glyph glyph-name="ecaron" unicode="&#x11b;" horiz-adv-x="499" 
d="M242 -10q-93 0 -143.5 54.5t-50.5 147.5q0 64 18.5 126.5t53.5 114t84.5 82.5t111.5 31q76 0 114.5 -33t38.5 -92q0 -52 -32.5 -95t-101.5 -68.5t-179 -25.5h-17q-1 -9 -1.5 -19t-0.5 -18q0 -61 30 -96.5t91 -35.5q38 0 72 11t74 30v-75q-38 -17 -74.5 -28t-87.5 -11z
M159 303q60 0 111 10.5t82 35t31 65.5q0 26 -17.5 42.5t-54.5 16.5q-48 0 -92.5 -44.5t-66.5 -125.5h7zM282 606q-13 38 -38 78t-44 69v13h53q20 -16 40 -40t39 -51q31 27 62 50.5t58 40.5h57v-13q-17 -15 -45 -41.5t-54.5 -54.5t-41.5 -51h-86z" />
    <glyph glyph-name="Gcircumflex" unicode="&#x11c;" horiz-adv-x="678" 
d="M343 -10q-127 0 -199 71t-72 198q0 98 27.5 182.5t79 148t122 99t156.5 35.5q65 0 114 -11t93 -31l-34 -78q-37 17 -80 29t-94 12q-82 0 -147.5 -49t-103.5 -134.5t-38 -196.5q0 -55 19.5 -99.5t60.5 -70.5t105 -26q38 0 69.5 5.5t53.5 12.5l46 211h-140l17 78h229
l-76 -349q-45 -16 -95 -26.5t-113 -10.5zM315 797q17 16 45 42t54.5 54.5t40.5 50.5h85q15 -39 40 -78.5t44 -68.5v-13h-55q-18 16 -38.5 40t-40.5 51q-30 -27 -60.5 -50.5t-56.5 -40.5h-58v13z" />
    <glyph glyph-name="gcircumflex" unicode="&#x11d;" horiz-adv-x="579" 
d="M186 -240q-49 0 -90.5 9.5t-70.5 24.5v81q26 -16 70.5 -29t87.5 -13q62 0 102 30t56 100l9 38q5 23 12.5 51t12.5 47h-4q-34 -44 -77.5 -76.5t-99.5 -32.5q-65 0 -105.5 46.5t-40.5 136.5q0 73 18 140t52.5 119.5t83 83t109.5 30.5q54 0 87 -28t49 -65h4l33 83h67
l-122 -567q-24 -113 -85.5 -161t-157.5 -48zM223 63q34 0 68 25t62.5 67.5t45.5 96.5t17 112q0 48 -22.5 78t-75.5 30q-40 0 -73 -25.5t-57 -68.5t-37 -97t-13 -110q0 -108 85 -108zM188 619q17 16 45 42t54.5 54.5t40.5 50.5h85q15 -39 40 -78.5t44 -68.5v-13h-55
q-18 16 -38.5 40t-40.5 51q-30 -27 -60.5 -50.5t-56.5 -40.5h-58v13z" />
    <glyph glyph-name="Gbreve" unicode="&#x11e;" horiz-adv-x="678" 
d="M343 -10q-127 0 -199 71t-72 198q0 98 27.5 182.5t79 148t122 99t156.5 35.5q65 0 114 -11t93 -31l-34 -78q-37 17 -80 29t-94 12q-82 0 -147.5 -49t-103.5 -134.5t-38 -196.5q0 -55 19.5 -99.5t60.5 -70.5t105 -26q38 0 69.5 5.5t53.5 12.5l46 211h-140l17 78h229
l-76 -349q-45 -16 -95 -26.5t-113 -10.5zM476 784q-54 0 -89 28.5t-35 83.5v10.5t1 11.5h52q0 -29 18 -45t62 -16q46 0 69 16.5t30 44.5h55q-16 -72 -58 -103t-105 -31z" />
    <glyph glyph-name="gbreve" unicode="&#x11f;" horiz-adv-x="579" 
d="M186 -240q-49 0 -90.5 9.5t-70.5 24.5v81q26 -16 70.5 -29t87.5 -13q62 0 102 30t56 100l9 38q5 23 12.5 51t12.5 47h-4q-34 -44 -77.5 -76.5t-99.5 -32.5q-65 0 -105.5 46.5t-40.5 136.5q0 73 18 140t52.5 119.5t83 83t109.5 30.5q54 0 87 -28t49 -65h4l33 83h67
l-122 -567q-24 -113 -85.5 -161t-157.5 -48zM223 63q34 0 68 25t62.5 67.5t45.5 96.5t17 112q0 48 -22.5 78t-75.5 30q-40 0 -73 -25.5t-57 -68.5t-37 -97t-13 -110q0 -108 85 -108zM349 606q-54 0 -89 28.5t-35 83.5v10.5t1 11.5h52q0 -29 18 -45t62 -16q46 0 69 16.5
t30 44.5h55q-16 -72 -58 -103t-105 -31z" />
    <glyph glyph-name="Gdotaccent" unicode="&#x120;" horiz-adv-x="678" 
d="M343 -10q-127 0 -199 71t-72 198q0 98 27.5 182.5t79 148t122 99t156.5 35.5q65 0 114 -11t93 -31l-34 -78q-37 17 -80 29t-94 12q-82 0 -147.5 -49t-103.5 -134.5t-38 -196.5q0 -55 19.5 -99.5t60.5 -70.5t105 -26q38 0 69.5 5.5t53.5 12.5l46 211h-140l17 78h229
l-76 -349q-45 -16 -95 -26.5t-113 -10.5zM486 803q-20 0 -34 12.5t-14 34.5q0 26 15.5 45t43.5 19q46 0 46 -45q0 -31 -18 -48.5t-39 -17.5z" />
    <glyph glyph-name="gdotaccent" unicode="&#x121;" horiz-adv-x="579" 
d="M186 -240q-49 0 -90.5 9.5t-70.5 24.5v81q26 -16 70.5 -29t87.5 -13q62 0 102 30t56 100l9 38q5 23 12.5 51t12.5 47h-4q-34 -44 -77.5 -76.5t-99.5 -32.5q-65 0 -105.5 46.5t-40.5 136.5q0 73 18 140t52.5 119.5t83 83t109.5 30.5q54 0 87 -28t49 -65h4l33 83h67
l-122 -567q-24 -113 -85.5 -161t-157.5 -48zM223 63q34 0 68 25t62.5 67.5t45.5 96.5t17 112q0 48 -22.5 78t-75.5 30q-40 0 -73 -25.5t-57 -68.5t-37 -97t-13 -110q0 -108 85 -108zM359 625q-20 0 -34 12.5t-14 34.5q0 26 15.5 45t43.5 19q46 0 46 -45q0 -31 -18 -48.5
t-39 -17.5z" />
    <glyph glyph-name="uni0122" unicode="&#x122;" horiz-adv-x="678" 
d="M343 -10q-127 0 -199 71t-72 198q0 98 27.5 182.5t79 148t122 99t156.5 35.5q65 0 114 -11t93 -31l-34 -78q-37 17 -80 29t-94 12q-82 0 -147.5 -49t-103.5 -134.5t-38 -196.5q0 -55 19.5 -99.5t60.5 -70.5t105 -26q38 0 69.5 5.5t53.5 12.5l46 211h-140l17 78h229
l-76 -349q-45 -16 -95 -26.5t-113 -10.5zM223 -208q10 17 24 43t27 54.5t20 49.5h83v-10q-6 -16 -23 -43t-39 -56t-44 -51h-48v13z" />
    <glyph glyph-name="uni0123" unicode="&#x123;" horiz-adv-x="579" 
d="M301 616q7 16 24 43t39 56.5t43 50.5h49v-13q-10 -16 -24 -42.5t-26.5 -54.5t-20.5 -50h-84v10zM186 -240q-49 0 -90.5 9.5t-70.5 24.5v81q26 -16 70.5 -29t87.5 -13q62 0 102 30t56 100l9 38q5 23 12.5 51t12.5 47h-4q-34 -44 -77.5 -76.5t-99.5 -32.5
q-65 0 -105.5 46.5t-40.5 136.5q0 73 18 140t52.5 119.5t83 83t109.5 30.5q54 0 87 -28t49 -65h4l33 83h67l-122 -567q-24 -113 -85.5 -161t-157.5 -48zM223 63q34 0 68 25t62.5 67.5t45.5 96.5t17 112q0 48 -22.5 78t-75.5 30q-40 0 -73 -25.5t-57 -68.5t-37 -97t-13 -110
q0 -108 85 -108z" />
    <glyph glyph-name="Hcircumflex" unicode="&#x124;" horiz-adv-x="680" 
d="M42 0l151 714h89l-64 -302h314l64 302h88l-151 -714h-88l70 333h-314l-70 -333h-89zM284 797q17 16 45 42t54.5 54.5t40.5 50.5h85q15 -39 40 -78.5t44 -68.5v-13h-55q-18 16 -38.5 40t-40.5 51q-30 -27 -60.5 -50.5t-56.5 -40.5h-58v13z" />
    <glyph glyph-name="hcircumflex" unicode="&#x125;" horiz-adv-x="579" 
d="M28 0l161 760h88l-43 -197q-6 -30 -15 -62.5t-17 -64.5h5q19 25 45 50t59.5 42t76.5 17q62 0 98.5 -34.5t36.5 -102.5q0 -19 -3 -39t-8 -43l-70 -326h-88l71 336q9 45 9 66q0 33 -16.5 51.5t-53.5 18.5q-34 0 -73.5 -23.5t-73 -76.5t-52.5 -141l-49 -231h-88zM83 843
q17 16 45 42t54.5 54.5t40.5 50.5h85q15 -39 40 -78.5t44 -68.5v-13h-55q-18 16 -38.5 40t-40.5 51q-30 -27 -60.5 -50.5t-56.5 -40.5h-58v13z" />
    <glyph glyph-name="Hbar" unicode="&#x126;" horiz-adv-x="680" 
d="M41 0l110 522h-91l15 72h91l26 120h89l-26 -120h314l26 120h90l-25 -120h91l-14 -72h-93l-110 -522h-90l70 333h-314l-70 -333h-89zM217 412h314l23 110h-314z" />
    <glyph glyph-name="hbar" unicode="&#x127;" horiz-adv-x="579" 
d="M28 0l129 604h-75l15 66h73l19 90h88l-20 -90h169l-15 -66h-167q-13 -57 -25 -103.5t-18 -72.5h5q19 25 44.5 50.5t59 42.5t76.5 17q63 0 99 -35.5t36 -103.5q0 -19 -3 -39t-8 -43l-68 -317h-88l70 327q9 44 9 65q0 35 -17 54t-54 19q-33 0 -73 -24t-74 -77t-53 -141
l-46 -223h-88z" />
    <glyph glyph-name="Itilde" unicode="&#x128;" horiz-adv-x="324" 
d="M-20 0l10 49l85 20l122 576l-76 19l10 50h250l-10 -50l-86 -19l-122 -576l77 -20l-10 -49h-250zM102 784q14 62 43 95t72 33q29 0 54 -13.5t46 -27.5t38 -14q22 0 34 13t24 43h53q-16 -62 -45 -95t-72 -33q-26 0 -50 14t-45.5 27.5t-43.5 13.5q-21 0 -33 -14t-23 -42h-52
z" />
    <glyph glyph-name="itilde" unicode="&#x129;" horiz-adv-x="258" 
d="M28 0l114 536h88l-114 -536h-88zM31 606q14 62 43 95t72 33q29 0 54 -13.5t46 -27.5t38 -14q22 0 34 13t24 43h53q-16 -62 -45 -95t-72 -33q-26 0 -50 14t-45.5 27.5t-43.5 13.5q-21 0 -33 -14t-23 -42h-52z" />
    <glyph glyph-name="Imacron" unicode="&#x12a;" horiz-adv-x="324" 
d="M-20 0l10 49l85 20l122 576l-76 19l10 50h250l-10 -50l-86 -19l-122 -576l77 -20l-10 -49h-250zM133 784l15 71h269l-15 -71h-269z" />
    <glyph glyph-name="imacron" unicode="&#x12b;" horiz-adv-x="258" 
d="M28 0l114 536h88l-114 -536h-88zM62 606l15 71h269l-15 -71h-269z" />
    <glyph glyph-name="Ibreve" unicode="&#x12c;" horiz-adv-x="324" 
d="M-20 0l10 49l85 20l122 576l-76 19l10 50h250l-10 -50l-86 -19l-122 -576l77 -20l-10 -49h-250zM269 784q-54 0 -89 28.5t-35 83.5v10.5t1 11.5h52q0 -29 18 -45t62 -16q46 0 69 16.5t30 44.5h55q-16 -72 -58 -103t-105 -31z" />
    <glyph glyph-name="ibreve" unicode="&#x12d;" horiz-adv-x="258" 
d="M28 0l114 536h88l-114 -536h-88zM198 606q-54 0 -89 28.5t-35 83.5v10.5t1 11.5h52q0 -29 18 -45t62 -16q46 0 69 16.5t30 44.5h55q-16 -72 -58 -103t-105 -31z" />
    <glyph glyph-name="Iogonek" unicode="&#x12e;" horiz-adv-x="324" 
d="M-20 0l10 49l85 20l122 576l-76 19l10 50h250l-10 -50l-86 -19l-122 -576l77 -20l-10 -49h-250zM103 -217q-38 0 -63.5 19.5t-25.5 60.5q0 47 29.5 78t74.5 59h61q-19 -15 -41 -34.5t-37 -42t-15 -49.5q0 -33 33 -33q11 0 21 1.5t19 2.5v-55q-13 -4 -27.5 -5.5
t-28.5 -1.5z" />
    <glyph glyph-name="iogonek" unicode="&#x12f;" horiz-adv-x="258" 
d="M213 625q-21 0 -34.5 12.5t-13.5 34.5q0 26 15.5 45t43.5 19q46 0 46 -45q0 -31 -18 -48.5t-39 -17.5zM28 0l114 536h88l-114 -536h-88zM55 -217q-38 0 -63.5 19.5t-25.5 60.5q0 47 29.5 78t74.5 59h61q-19 -15 -41 -34.5t-37 -42t-15 -49.5q0 -33 33 -33q11 0 21 1.5
t19 2.5v-55q-13 -4 -27.5 -5.5t-28.5 -1.5z" />
    <glyph glyph-name="Idotaccent" unicode="&#x130;" horiz-adv-x="324" 
d="M-20 0l10 49l85 20l122 576l-76 19l10 50h250l-10 -50l-86 -19l-122 -576l77 -20l-10 -49h-250zM279 803q-20 0 -34 12.5t-14 34.5q0 26 15.5 45t43.5 19q46 0 46 -45q0 -31 -18 -48.5t-39 -17.5z" />
    <glyph glyph-name="dotlessi" unicode="&#x131;" horiz-adv-x="258" 
d="M28 0l114 536h88l-114 -536h-88z" />
    <glyph glyph-name="IJ" unicode="&#x132;" horiz-adv-x="597" 
d="M-20 0l10 49l85 20l122 576l-76 19l10 50h250l-10 -50l-86 -19l-122 -576l77 -20l-10 -49h-250zM244 -190q-50 0 -76 12l3 77q15 -4 33 -7t38 -3q44 0 78 28t47 92l150 705h89l-151 -715q-22 -101 -76.5 -145t-134.5 -44z" />
    <glyph glyph-name="ij" unicode="&#x133;" horiz-adv-x="516" 
d="M213 625q-21 0 -34.5 12.5t-13.5 34.5q0 26 15.5 45t43.5 19q46 0 46 -45q0 -31 -18 -48.5t-39 -17.5zM28 0l114 536h88l-114 -536h-88zM470 625q-20 0 -33.5 12.5t-13.5 34.5q0 26 15.5 45t43.5 19q45 0 45 -45q0 -31 -18 -48.5t-39 -17.5zM194 -240q-37 0 -62 10v74
q12 -4 27 -7.5t31 -3.5q61 0 82 98l128 605h87l-130 -613q-16 -75 -52.5 -119t-110.5 -44z" />
    <glyph glyph-name="Jcircumflex" unicode="&#x134;" horiz-adv-x="273" 
d="M-80 -190q-50 0 -76 12l3 77q15 -4 33 -7t38 -3q44 0 78 28t47 92l150 705h89l-151 -715q-22 -101 -76.5 -145t-134.5 -44zM83 797q17 16 45 42t54.5 54.5t40.5 50.5h85q15 -39 40 -78.5t44 -68.5v-13h-55q-18 16 -38.5 40t-40.5 51q-30 -27 -60.5 -50.5t-56.5 -40.5h-58
v13z" />
    <glyph glyph-name="jcircumflex" unicode="&#x135;" horiz-adv-x="258" 
d="M-64 -240q-37 0 -62 10v74q12 -4 27 -7.5t31 -3.5q61 0 82 98l128 605h87l-130 -613q-16 -75 -52.5 -119t-110.5 -44zM38 619q17 16 45 42t54.5 54.5t40.5 50.5h85q15 -39 40 -78.5t44 -68.5v-13h-55q-18 16 -38.5 40t-40.5 51q-30 -27 -60.5 -50.5t-56.5 -40.5h-58v13z
" />
    <glyph glyph-name="uni0136" unicode="&#x136;" horiz-adv-x="562" 
d="M41 0l151 714h89l-74 -347l62 66l274 281h108l-310 -314l169 -400h-98l-139 346l-83 -61l-60 -285h-89zM141 -208q10 17 24 43t27 54.5t20 49.5h83v-10q-6 -16 -23 -43t-39 -56t-44 -51h-48v13z" />
    <glyph glyph-name="uni0137" unicode="&#x137;" horiz-adv-x="495" 
d="M27 0l161 760h89l-65 -302q-17 -80 -29.5 -123.5t-17.5 -57.5h2l254 259h104l-230 -230l143 -306h-97l-113 251l-72 -57l-40 -194h-89zM114 -208q10 17 24 43t27 54.5t20 49.5h83v-10q-6 -16 -23 -43t-39 -56t-44 -51h-48v13z" />
    <glyph glyph-name="kgreenlandic" unicode="&#x138;" horiz-adv-x="495" 
d="M27 0l113 536h89l-30 -135q-7 -37 -17.5 -71t-16.5 -54h2l254 260h104l-230 -230l143 -306h-97l-113 251l-72 -57l-40 -194h-89z" />
    <glyph glyph-name="Lacute" unicode="&#x139;" horiz-adv-x="478" 
d="M41 0l151 714h89l-135 -634h274l-17 -80h-362zM214 797q18 19 38.5 45t40 53t33.5 49h100v-10q-14 -17 -41.5 -46t-58.5 -57.5t-57 -46.5h-55v13z" />
    <glyph glyph-name="lacute" unicode="&#x13a;" horiz-adv-x="258" 
d="M27 0l162 760h88l-162 -760h-88zM193 843q18 19 38.5 45t40 53t33.5 49h100v-10q-14 -17 -41.5 -46t-58.5 -57.5t-57 -46.5h-55v13z" />
    <glyph glyph-name="uni013B" unicode="&#x13b;" horiz-adv-x="478" 
d="M41 0l151 714h89l-135 -634h274l-17 -80h-362zM115 -208q10 17 24 43t27 54.5t20 49.5h83v-10q-6 -16 -23 -43t-39 -56t-44 -51h-48v13z" />
    <glyph glyph-name="uni013C" unicode="&#x13c;" horiz-adv-x="258" 
d="M27 0l162 760h88l-162 -760h-88zM-35 -208q10 17 24 43t27 54.5t20 49.5h83v-10q-6 -16 -23 -43t-39 -56t-44 -51h-48v13z" />
    <glyph glyph-name="Lcaron" unicode="&#x13d;" horiz-adv-x="478" 
d="M41 0l151 714h89l-135 -634h274l-17 -80h-362zM363 565q11 17 25 43t26.5 54.5t20.5 49.5h83v-10q-7 -16 -23.5 -43t-38.5 -56t-44 -51h-49v13z" />
    <glyph glyph-name="lcaron" unicode="&#x13e;" horiz-adv-x="288" 
d="M283 613q11 17 25 43t26.5 54.5t20.5 49.5h83v-10q-6 -16 -23 -43t-39 -56t-44 -51h-49v13zM27 0l162 760h88l-162 -760h-88z" />
    <glyph glyph-name="Ldot" unicode="&#x13f;" horiz-adv-x="478" 
d="M41 0l151 714h89l-135 -634h274l-17 -80h-362zM382 299q-20 0 -34 12.5t-14 34.5q0 26 15.5 45t43.5 19q46 0 46 -45q0 -31 -18 -48.5t-39 -17.5z" />
    <glyph glyph-name="ldot" unicode="&#x140;" horiz-adv-x="297" 
d="M27 0l162 760h88l-162 -760h-88zM294 310q-20 0 -34 12.5t-14 34.5q0 26 15.5 45t43.5 19q46 0 46 -45q0 -31 -18 -48.5t-39 -17.5z" />
    <glyph glyph-name="Lslash" unicode="&#x141;" horiz-adv-x="478" 
d="M40 0l53 246l-52 -30l-31 58l100 57l81 383h90l-70 -325l112 63l31 -56l-160 -92l-47 -224h273l-17 -80h-363z" />
    <glyph glyph-name="lslash" unicode="&#x142;" horiz-adv-x="258" 
d="M27 0l61 285l-55 -33l-30 55l102 62l84 391h88l-70 -332l58 34l28 -55l-104 -62l-74 -345h-88z" />
    <glyph glyph-name="Nacute" unicode="&#x143;" horiz-adv-x="707" 
d="M40 0l151 714h95l219 -590h3q5 36 14.5 91.5t20.5 105.5l84 393h85l-151 -714h-95l-221 592h-3q-2 -21 -7.5 -55t-13 -73t-15.5 -76l-82 -388h-84zM416 797q18 19 38.5 45t40 53t33.5 49h100v-10q-14 -17 -41.5 -46t-58.5 -57.5t-57 -46.5h-55v13z" />
    <glyph glyph-name="nacute" unicode="&#x144;" horiz-adv-x="579" 
d="M24 0l115 539h78l-11 -99h1q19 25 44.5 50t59.5 42t77 17q65 0 101.5 -35.5t36.5 -99.5q0 -23 -3.5 -47t-7.5 -42l-71 -325h-94l72 337q5 23 7.5 38.5t2.5 29.5q0 64 -68 64q-33 0 -71.5 -23t-72 -75t-52.5 -140l-50 -231h-94zM311 619q18 19 38.5 45t40 53t33.5 49h100
v-10q-14 -17 -41.5 -46t-58.5 -57.5t-57 -46.5h-55v13z" />
    <glyph glyph-name="uni0145" unicode="&#x145;" horiz-adv-x="707" 
d="M40 0l151 714h95l219 -590h3q5 36 14.5 91.5t20.5 105.5l84 393h85l-151 -714h-95l-221 592h-3q-2 -21 -7.5 -55t-13 -73t-15.5 -76l-82 -388h-84zM190 -208q10 17 24 43t27 54.5t20 49.5h83v-10q-6 -16 -23 -43t-39 -56t-44 -51h-48v13z" />
    <glyph glyph-name="uni0146" unicode="&#x146;" horiz-adv-x="579" 
d="M24 0l115 539h78l-11 -99h1q19 25 44.5 50t59.5 42t77 17q65 0 101.5 -35.5t36.5 -99.5q0 -23 -3.5 -47t-7.5 -42l-71 -325h-94l72 337q5 23 7.5 38.5t2.5 29.5q0 64 -68 64q-33 0 -71.5 -23t-72 -75t-52.5 -140l-50 -231h-94zM128 -208q10 17 24 43t27 54.5t20 49.5h83
v-10q-6 -16 -23 -43t-39 -56t-44 -51h-48v13z" />
    <glyph glyph-name="Ncaron" unicode="&#x147;" horiz-adv-x="707" 
d="M40 0l151 714h95l219 -590h3q5 36 14.5 91.5t20.5 105.5l84 393h85l-151 -714h-95l-221 592h-3q-2 -21 -7.5 -55t-13 -73t-15.5 -76l-82 -388h-84zM422 784q-13 38 -38 78t-44 69v13h53q20 -16 40 -40t39 -51q31 27 62 50.5t58 40.5h57v-13q-17 -15 -45 -41.5
t-54.5 -54.5t-41.5 -51h-86z" />
    <glyph glyph-name="ncaron" unicode="&#x148;" horiz-adv-x="579" 
d="M24 0l115 539h78l-11 -99h1q19 25 44.5 50t59.5 42t77 17q65 0 101.5 -35.5t36.5 -99.5q0 -23 -3.5 -47t-7.5 -42l-71 -325h-94l72 337q5 23 7.5 38.5t2.5 29.5q0 64 -68 64q-33 0 -71.5 -23t-72 -75t-52.5 -140l-50 -231h-94zM317 606q-13 38 -38 78t-44 69v13h53
q20 -16 40 -40t39 -51q31 27 62 50.5t58 40.5h57v-13q-17 -15 -45 -41.5t-54.5 -54.5t-41.5 -51h-86z" />
    <glyph glyph-name="napostrophe" unicode="&#x149;" horiz-adv-x="657" 
d="M102 0l115 539h78l-11 -99h1q19 25 44.5 50t59.5 42t77 17q65 0 101.5 -35.5t36.5 -99.5q0 -23 -3.5 -47t-7.5 -42l-71 -325h-94l72 337q5 23 7.5 38.5t2.5 29.5q0 64 -68 64q-33 0 -71.5 -23t-72 -75t-52.5 -140l-50 -231h-94zM41 469q26 59 54 126t45 119h96l4 -11
q-24 -53 -60 -116t-72 -118h-67z" />
    <glyph glyph-name="Eng" unicode="&#x14a;" horiz-adv-x="707" 
d="M350 -189q-23 0 -44 3.5t-32 8.5l3 77q15 -4 33 -7t39 -3q44 0 77.5 25t46.5 85l-228 592h-4q-5 -37 -14 -93t-21 -111l-82 -388h-84l151 714h95l219 -583h3q7 42 17 99t21 109l80 375h86l-151 -714q-21 -101 -76 -145t-135 -44z" />
    <glyph glyph-name="eng" unicode="&#x14b;" horiz-adv-x="579" 
d="M262 -240q-18 0 -33.5 3t-28.5 7v74q14 -4 28 -7.5t30 -3.5q60 0 81 99l86 404q5 23 7.5 39t2.5 30q0 31 -17 49t-54 18q-34 0 -73 -23.5t-73 -76.5t-53 -141l-49 -231h-88l114 536h72l-11 -99h5q19 25 44.5 50t59 42t76.5 17q62 0 98.5 -33.5t36.5 -98.5q0 -23 -3 -44
t-8 -44l-86 -404q-16 -74 -52.5 -118t-111.5 -44z" />
    <glyph glyph-name="Omacron" unicode="&#x14c;" horiz-adv-x="721" 
d="M337 -10q-128 0 -196.5 74.5t-68.5 202.5q0 92 24.5 175t71.5 146.5t114 100t151 36.5q122 0 189.5 -75t67.5 -206q0 -93 -22.5 -175t-67 -144.5t-110.5 -98.5t-153 -36zM340 69q60 0 107 30t80 82.5t50.5 120.5t17.5 144q0 95 -45 147.5t-123 52.5q-60 0 -108 -29.5
t-82 -81t-52 -120t-18 -146.5q0 -94 46 -147t127 -53zM332 784l15 71h269l-15 -71h-269z" />
    <glyph glyph-name="omacron" unicode="&#x14d;" horiz-adv-x="563" 
d="M248 -8q-93 0 -146.5 55.5t-53.5 150.5q0 62 17 123t50.5 111t84 80.5t116.5 30.5q94 0 147 -55.5t53 -151.5q0 -61 -17 -122t-50.5 -111t-83.5 -80.5t-117 -30.5zM253 65q48 0 87 33.5t62.5 96.5t23.5 151q0 30 -10.5 58.5t-34.5 47t-64 18.5q-55 0 -95.5 -37.5
t-62.5 -100t-22 -137.5q0 -62 30.5 -96t85.5 -34zM198 606l15 71h269l-15 -71h-269z" />
    <glyph glyph-name="Obreve" unicode="&#x14e;" horiz-adv-x="721" 
d="M337 -10q-128 0 -196.5 74.5t-68.5 202.5q0 92 24.5 175t71.5 146.5t114 100t151 36.5q122 0 189.5 -75t67.5 -206q0 -93 -22.5 -175t-67 -144.5t-110.5 -98.5t-153 -36zM340 69q60 0 107 30t80 82.5t50.5 120.5t17.5 144q0 95 -45 147.5t-123 52.5q-60 0 -108 -29.5
t-82 -81t-52 -120t-18 -146.5q0 -94 46 -147t127 -53zM468 784q-54 0 -89 28.5t-35 83.5v10.5t1 11.5h52q0 -29 18 -45t62 -16q46 0 69 16.5t30 44.5h55q-16 -72 -58 -103t-105 -31z" />
    <glyph glyph-name="obreve" unicode="&#x14f;" horiz-adv-x="563" 
d="M248 -8q-93 0 -146.5 55.5t-53.5 150.5q0 62 17 123t50.5 111t84 80.5t116.5 30.5q94 0 147 -55.5t53 -151.5q0 -61 -17 -122t-50.5 -111t-83.5 -80.5t-117 -30.5zM253 65q48 0 87 33.5t62.5 96.5t23.5 151q0 30 -10.5 58.5t-34.5 47t-64 18.5q-55 0 -95.5 -37.5
t-62.5 -100t-22 -137.5q0 -62 30.5 -96t85.5 -34zM334 606q-54 0 -89 28.5t-35 83.5v10.5t1 11.5h52q0 -29 18 -45t62 -16q46 0 69 16.5t30 44.5h55q-16 -72 -58 -103t-105 -31z" />
    <glyph glyph-name="Ohungarumlaut" unicode="&#x150;" horiz-adv-x="721" 
d="M337 -10q-128 0 -196.5 74.5t-68.5 202.5q0 92 24.5 175t71.5 146.5t114 100t151 36.5q122 0 189.5 -75t67.5 -206q0 -93 -22.5 -175t-67 -144.5t-110.5 -98.5t-153 -36zM340 69q60 0 107 30t80 82.5t50.5 120.5t17.5 144q0 95 -45 147.5t-123 52.5q-60 0 -108 -29.5
t-82 -81t-52 -120t-18 -146.5q0 -94 46 -147t127 -53zM520 797q18 19 38.5 45t40 53t33.5 49h90v-10q-13 -17 -40.5 -46t-58.5 -57.5t-57 -46.5h-46v13zM351 797q18 19 38.5 45t40 53t33.5 49h90v-10q-13 -17 -40.5 -46t-58.5 -57.5t-57 -46.5h-46v13z" />
    <glyph glyph-name="ohungarumlaut" unicode="&#x151;" horiz-adv-x="563" 
d="M248 -8q-93 0 -146.5 55.5t-53.5 150.5q0 62 17 123t50.5 111t84 80.5t116.5 30.5q94 0 147 -55.5t53 -151.5q0 -61 -17 -122t-50.5 -111t-83.5 -80.5t-117 -30.5zM253 65q48 0 87 33.5t62.5 96.5t23.5 151q0 30 -10.5 58.5t-34.5 47t-64 18.5q-55 0 -95.5 -37.5
t-62.5 -100t-22 -137.5q0 -62 30.5 -96t85.5 -34zM386 619q18 19 38.5 45t40 53t33.5 49h90v-10q-13 -17 -40.5 -46t-58.5 -57.5t-57 -46.5h-46v13zM217 619q18 19 38.5 45t40 53t33.5 49h90v-10q-13 -17 -40.5 -46t-58.5 -57.5t-57 -46.5h-46v13z" />
    <glyph glyph-name="OE" unicode="&#x152;" horiz-adv-x="859" 
d="M337 -10q-128 0 -196.5 74.5t-68.5 202.5q0 92 24.5 175t71.5 146.5t114 100t151 36.5q72 0 115 -11h351l-16 -79h-274l-48 -223h256l-16 -78h-256l-54 -255h274l-17 -79h-333q-18 -4 -37.5 -7t-40.5 -3zM340 69q34 0 61 9l118 557q-39 11 -92 11q-60 0 -108 -29.5
t-82 -81t-52 -120t-18 -146.5q0 -94 46 -147t127 -53z" />
    <glyph glyph-name="oe" unicode="&#x153;" horiz-adv-x="866" 
d="M243 -8q-89 0 -142 55.5t-53 150.5q0 62 17 123t51 111t85.5 80.5t119.5 30.5q73 0 113.5 -30t59.5 -77q36 52 86.5 81t108.5 29q65 0 106 -30.5t41 -94.5q0 -52 -31.5 -95t-99.5 -68.5t-178 -25.5h-21q-1 -9 -1.5 -19t-0.5 -18q0 -61 30 -96.5t91 -35.5q38 0 71.5 11.5
t73.5 29.5v-77q-40 -19 -78.5 -28t-82.5 -9q-63 0 -107.5 27t-66.5 79q-31 -47 -79 -75.5t-113 -28.5zM526 303q60 0 111 11t82 36t31 67q0 23 -15.5 39.5t-46.5 16.5q-55 0 -102 -42.5t-70 -127.5h10zM248 65q59 0 98.5 37t60 101t20.5 143q0 56 -27 90t-83 34
q-55 0 -95.5 -37.5t-62.5 -99t-22 -133.5q0 -66 29.5 -100.5t81.5 -34.5z" />
    <glyph glyph-name="Racute" unicode="&#x154;" horiz-adv-x="573" 
d="M41 0l151 714h157q220 0 220 -181q0 -77 -40.5 -134t-137.5 -84l118 -315h-98l-102 295h-117l-62 -295h-89zM286 371q100 0 145.5 43.5t45.5 112.5q0 61 -34 85t-102 24h-76l-57 -265h78zM344 797q18 19 38.5 45t40 53t33.5 49h100v-10q-14 -17 -41.5 -46t-58.5 -57.5
t-57 -46.5h-55v13z" />
    <glyph glyph-name="racute" unicode="&#x155;" horiz-adv-x="398" 
d="M28 0l114 536h72l-11 -99h5q21 28 44 52.5t52 40.5t67 16q14 0 29.5 -1.5t28.5 -5.5l-19 -79q-27 6 -51 6q-50 0 -89 -33t-65 -84t-37 -104l-52 -245h-88zM250 619q18 19 38.5 45t40 53t33.5 49h100v-10q-14 -17 -41.5 -46t-58.5 -57.5t-57 -46.5h-55v13z" />
    <glyph glyph-name="uni0156" unicode="&#x156;" horiz-adv-x="573" 
d="M41 0l151 714h157q220 0 220 -181q0 -77 -40.5 -134t-137.5 -84l118 -315h-98l-102 295h-117l-62 -295h-89zM286 371q100 0 145.5 43.5t45.5 112.5q0 61 -34 85t-102 24h-76l-57 -265h78zM143 -208q10 17 24 43t27 54.5t20 49.5h83v-10q-6 -16 -23 -43t-39 -56t-44 -51
h-48v13z" />
    <glyph glyph-name="uni0157" unicode="&#x157;" horiz-adv-x="398" 
d="M28 0l114 536h72l-11 -99h5q21 28 44 52.5t52 40.5t67 16q14 0 29.5 -1.5t28.5 -5.5l-19 -79q-27 6 -51 6q-50 0 -89 -33t-65 -84t-37 -104l-52 -245h-88zM-32 -208q10 17 24 43t27 54.5t20 49.5h83v-10q-6 -16 -23 -43t-39 -56t-44 -51h-48v13z" />
    <glyph glyph-name="Rcaron" unicode="&#x158;" horiz-adv-x="573" 
d="M41 0l151 714h157q220 0 220 -181q0 -77 -40.5 -134t-137.5 -84l118 -315h-98l-102 295h-117l-62 -295h-89zM286 371q100 0 145.5 43.5t45.5 112.5q0 61 -34 85t-102 24h-76l-57 -265h78zM350 784q-13 38 -38 78t-44 69v13h53q20 -16 40 -40t39 -51q31 27 62 50.5
t58 40.5h57v-13q-17 -15 -45 -41.5t-54.5 -54.5t-41.5 -51h-86z" />
    <glyph glyph-name="rcaron" unicode="&#x159;" horiz-adv-x="398" 
d="M28 0l114 536h72l-11 -99h5q21 28 44 52.5t52 40.5t67 16q14 0 29.5 -1.5t28.5 -5.5l-19 -79q-27 6 -51 6q-50 0 -89 -33t-65 -84t-37 -104l-52 -245h-88zM256 606q-13 38 -38 78t-44 69v13h53q20 -16 40 -40t39 -51q31 27 62 50.5t58 40.5h57v-13q-17 -15 -45 -41.5
t-54.5 -54.5t-41.5 -51h-86z" />
    <glyph glyph-name="Sacute" unicode="&#x15a;" horiz-adv-x="505" 
d="M185 -10q-52 0 -91.5 8t-74.5 24v88q30 -16 71.5 -29t95.5 -13q45 0 83 14t61 43t23 75q0 40 -26.5 68.5t-91.5 65.5q-38 23 -67.5 47.5t-46 57t-16.5 78.5q0 66 32 112.5t85.5 70.5t117.5 24q56 0 98.5 -11t80.5 -31l-34 -76q-26 14 -65 26.5t-80 12.5q-61 0 -100.5 -32
t-39.5 -90q0 -30 11 -50.5t34 -37t57 -37.5q43 -26 75.5 -51t51 -58t18.5 -82q0 -107 -71.5 -162t-190.5 -55zM300 797q18 19 38.5 45t40 53t33.5 49h100v-10q-14 -17 -41.5 -46t-58.5 -57.5t-57 -46.5h-55v13z" />
    <glyph glyph-name="sacute" unicode="&#x15b;" horiz-adv-x="432" 
d="M155 -10q-49 0 -85.5 9.5t-64.5 24.5v81q26 -16 65.5 -29.5t81.5 -13.5q59 0 90 23.5t31 60.5q0 29 -19 48.5t-71 48.5q-57 32 -86 66t-29 85q0 68 49.5 110t132.5 42q49 0 90.5 -11.5t71.5 -25.5l-28 -70q-26 12 -58 22.5t-76 10.5q-43 0 -68.5 -20.5t-25.5 -52.5
q0 -26 17.5 -45.5t70.5 -48.5q34 -20 61 -40t42.5 -46t15.5 -64q0 -81 -56.5 -123t-151.5 -42zM224 619q18 19 38.5 45t40 53t33.5 49h100v-10q-14 -17 -41.5 -46t-58.5 -57.5t-57 -46.5h-55v13z" />
    <glyph glyph-name="Scircumflex" unicode="&#x15c;" horiz-adv-x="505" 
d="M185 -10q-52 0 -91.5 8t-74.5 24v88q30 -16 71.5 -29t95.5 -13q45 0 83 14t61 43t23 75q0 40 -26.5 68.5t-91.5 65.5q-38 23 -67.5 47.5t-46 57t-16.5 78.5q0 66 32 112.5t85.5 70.5t117.5 24q56 0 98.5 -11t80.5 -31l-34 -76q-26 14 -65 26.5t-80 12.5q-61 0 -100.5 -32
t-39.5 -90q0 -30 11 -50.5t34 -37t57 -37.5q43 -26 75.5 -51t51 -58t18.5 -82q0 -107 -71.5 -162t-190.5 -55zM189 797q17 16 45 42t54.5 54.5t40.5 50.5h85q15 -39 40 -78.5t44 -68.5v-13h-55q-18 16 -38.5 40t-40.5 51q-30 -27 -60.5 -50.5t-56.5 -40.5h-58v13z" />
    <glyph glyph-name="scircumflex" unicode="&#x15d;" horiz-adv-x="432" 
d="M155 -10q-49 0 -85.5 9.5t-64.5 24.5v81q26 -16 65.5 -29.5t81.5 -13.5q59 0 90 23.5t31 60.5q0 29 -19 48.5t-71 48.5q-57 32 -86 66t-29 85q0 68 49.5 110t132.5 42q49 0 90.5 -11.5t71.5 -25.5l-28 -70q-26 12 -58 22.5t-76 10.5q-43 0 -68.5 -20.5t-25.5 -52.5
q0 -26 17.5 -45.5t70.5 -48.5q34 -20 61 -40t42.5 -46t15.5 -64q0 -81 -56.5 -123t-151.5 -42zM113 619q17 16 45 42t54.5 54.5t40.5 50.5h85q15 -39 40 -78.5t44 -68.5v-13h-55q-18 16 -38.5 40t-40.5 51q-30 -27 -60.5 -50.5t-56.5 -40.5h-58v13z" />
    <glyph glyph-name="Scedilla" unicode="&#x15e;" horiz-adv-x="505" 
d="M185 -10q-52 0 -91.5 8t-74.5 24v88q30 -16 71.5 -29t95.5 -13q45 0 83 14t61 43t23 75q0 40 -26.5 68.5t-91.5 65.5q-38 23 -67.5 47.5t-46 57t-16.5 78.5q0 66 32 112.5t85.5 70.5t117.5 24q56 0 98.5 -11t80.5 -31l-34 -76q-26 14 -65 26.5t-80 12.5q-61 0 -100.5 -32
t-39.5 -90q0 -30 11 -50.5t34 -37t57 -37.5q43 -26 75.5 -51t51 -58t18.5 -82q0 -107 -71.5 -162t-190.5 -55zM125 -240q-27 0 -45 5v52q10 -2 19.5 -3t16.5 -1q82 0 82 53q0 22 -18.5 32t-48.5 14l48 88h56l-29 -57q23 -7 43.5 -23.5t20.5 -53.5q0 -45 -37 -75.5
t-108 -30.5z" />
    <glyph glyph-name="scedilla" unicode="&#x15f;" horiz-adv-x="432" 
d="M155 -10q-49 0 -85.5 9.5t-64.5 24.5v81q26 -16 65.5 -29.5t81.5 -13.5q59 0 90 23.5t31 60.5q0 29 -19 48.5t-71 48.5q-57 32 -86 66t-29 85q0 68 49.5 110t132.5 42q49 0 90.5 -11.5t71.5 -25.5l-28 -70q-26 12 -58 22.5t-76 10.5q-43 0 -68.5 -20.5t-25.5 -52.5
q0 -26 17.5 -45.5t70.5 -48.5q34 -20 61 -40t42.5 -46t15.5 -64q0 -81 -56.5 -123t-151.5 -42zM88 -240q-27 0 -45 5v52q10 -2 19.5 -3t16.5 -1q82 0 82 53q0 22 -18.5 32t-48.5 14l48 88h56l-29 -57q23 -7 43.5 -23.5t20.5 -53.5q0 -45 -37 -75.5t-108 -30.5z" />
    <glyph glyph-name="Scaron" unicode="&#x160;" horiz-adv-x="505" 
d="M185 -10q-52 0 -91.5 8t-74.5 24v88q30 -16 71.5 -29t95.5 -13q45 0 83 14t61 43t23 75q0 40 -26.5 68.5t-91.5 65.5q-38 23 -67.5 47.5t-46 57t-16.5 78.5q0 66 32 112.5t85.5 70.5t117.5 24q56 0 98.5 -11t80.5 -31l-34 -76q-26 14 -65 26.5t-80 12.5q-61 0 -100.5 -32
t-39.5 -90q0 -30 11 -50.5t34 -37t57 -37.5q43 -26 75.5 -51t51 -58t18.5 -82q0 -107 -71.5 -162t-190.5 -55zM306 784q-13 38 -38 78t-44 69v13h53q20 -16 40 -40t39 -51q31 27 62 50.5t58 40.5h57v-13q-17 -15 -45 -41.5t-54.5 -54.5t-41.5 -51h-86z" />
    <glyph glyph-name="scaron" unicode="&#x161;" horiz-adv-x="432" 
d="M155 -10q-49 0 -85.5 9.5t-64.5 24.5v81q26 -16 65.5 -29.5t81.5 -13.5q59 0 90 23.5t31 60.5q0 29 -19 48.5t-71 48.5q-57 32 -86 66t-29 85q0 68 49.5 110t132.5 42q49 0 90.5 -11.5t71.5 -25.5l-28 -70q-26 12 -58 22.5t-76 10.5q-43 0 -68.5 -20.5t-25.5 -52.5
q0 -26 17.5 -45.5t70.5 -48.5q34 -20 61 -40t42.5 -46t15.5 -64q0 -81 -56.5 -123t-151.5 -42zM230 606q-13 38 -38 78t-44 69v13h53q20 -16 40 -40t39 -51q31 27 62 50.5t58 40.5h57v-13q-17 -15 -45 -41.5t-54.5 -54.5t-41.5 -51h-86z" />
    <glyph glyph-name="uni0162" unicode="&#x162;" horiz-adv-x="501" 
d="M152 0l134 635h-196l17 79h482l-16 -79h-196l-135 -635h-90zM123 -240q-27 0 -45 5v52q10 -2 19.5 -3t16.5 -1q82 0 82 53q0 22 -18.5 32t-48.5 14l48 88h56l-29 -57q23 -7 43.5 -23.5t20.5 -53.5q0 -45 -37 -75.5t-108 -30.5z" />
    <glyph glyph-name="uni0163" unicode="&#x163;" horiz-adv-x="332" 
d="M185 -10q-54 0 -91 26t-37 91q0 32 9 71l61 291h-83l8 40l90 38l62 111h52l-27 -122h135l-14 -67h-134l-62 -292q-3 -13 -6 -29.5t-3 -30.5q0 -23 12.5 -39t40.5 -16q18 0 35 3.5t36 9.5v-67q-12 -6 -37 -12t-47 -6zM75 -240q-27 0 -45 5v52q10 -2 19.5 -3t16.5 -1
q82 0 82 53q0 22 -18.5 32t-48.5 14l48 88h56l-29 -57q23 -7 43.5 -23.5t20.5 -53.5q0 -45 -37 -75.5t-108 -30.5z" />
    <glyph glyph-name="Tcaron" unicode="&#x164;" horiz-adv-x="501" 
d="M152 0l134 635h-196l17 79h482l-16 -79h-196l-135 -635h-90zM314 784q-13 38 -38 78t-44 69v13h53q20 -16 40 -40t39 -51q31 27 62 50.5t58 40.5h57v-13q-17 -15 -45 -41.5t-54.5 -54.5t-41.5 -51h-86z" />
    <glyph glyph-name="tcaron" unicode="&#x165;" horiz-adv-x="332" 
d="M287 613q11 17 25 43t26.5 54.5t20.5 49.5h83v-10q-6 -16 -23 -43t-39 -56t-44 -51h-49v13zM185 -10q-54 0 -91 26t-37 91q0 32 9 71l61 291h-83l8 40l90 38l62 111h52l-27 -122h135l-14 -67h-134l-62 -292q-3 -13 -6 -29.5t-3 -30.5q0 -23 12.5 -39t40.5 -16
q18 0 35 3.5t36 9.5v-67q-12 -6 -37 -12t-47 -6z" />
    <glyph glyph-name="Tbar" unicode="&#x166;" horiz-adv-x="501" 
d="M152 0l69 327h-138l16 73h136l51 235h-196l17 79h482l-16 -79h-196l-51 -235h141l-15 -73h-141l-69 -327h-90z" />
    <glyph glyph-name="tbar" unicode="&#x167;" horiz-adv-x="332" 
d="M185 -10q-54 0 -91 26t-37 91q0 15 2.5 33.5t6.5 37.5l21 104h-67l14 66h67l26 121h-83l8 40l90 38l62 111h52l-27 -122h135l-14 -67h-134l-26 -121h118l-13 -66h-119l-22 -105q-3 -13 -6 -29.5t-3 -30.5q0 -23 12.5 -39t40.5 -16q18 0 35 3.5t36 9.5v-67q-12 -6 -37 -12
t-47 -6z" />
    <glyph glyph-name="Utilde" unicode="&#x168;" horiz-adv-x="677" 
d="M300 -10q-112 0 -166.5 51.5t-54.5 146.5q0 17 3 42t9 53l92 431h89l-93 -436q-5 -23 -8 -48t-3 -41q0 -56 34.5 -88t102.5 -32q89 0 132.5 46t62.5 135l99 464h89l-100 -471q-16 -78 -50.5 -135t-92.5 -87.5t-145 -30.5zM279 784q14 62 43 95t72 33q29 0 54 -13.5
t46 -27.5t38 -14q22 0 34 13t24 43h53q-16 -62 -45 -95t-72 -33q-26 0 -50 14t-45.5 27.5t-43.5 13.5q-21 0 -33 -14t-23 -42h-52z" />
    <glyph glyph-name="utilde" unicode="&#x169;" horiz-adv-x="579" 
d="M189 -10q-61 0 -97.5 34t-36.5 99q0 23 3.5 43.5t7.5 42.5l70 327h89l-72 -337q-9 -43 -9 -67q0 -32 16.5 -50.5t53.5 -18.5q34 0 73.5 24t73.5 77t53 141l49 231h87l-114 -536h-72l11 99h-5q-19 -24 -44.5 -49.5t-59 -42.5t-77.5 -17zM192 606q14 62 43 95t72 33
q29 0 54 -13.5t46 -27.5t38 -14q22 0 34 13t24 43h53q-16 -62 -45 -95t-72 -33q-26 0 -50 14t-45.5 27.5t-43.5 13.5q-21 0 -33 -14t-23 -42h-52z" />
    <glyph glyph-name="Umacron" unicode="&#x16a;" horiz-adv-x="677" 
d="M300 -10q-112 0 -166.5 51.5t-54.5 146.5q0 17 3 42t9 53l92 431h89l-93 -436q-5 -23 -8 -48t-3 -41q0 -56 34.5 -88t102.5 -32q89 0 132.5 46t62.5 135l99 464h89l-100 -471q-16 -78 -50.5 -135t-92.5 -87.5t-145 -30.5zM310 784l15 71h269l-15 -71h-269z" />
    <glyph glyph-name="umacron" unicode="&#x16b;" horiz-adv-x="579" 
d="M189 -10q-61 0 -97.5 34t-36.5 99q0 23 3.5 43.5t7.5 42.5l70 327h89l-72 -337q-9 -43 -9 -67q0 -32 16.5 -50.5t53.5 -18.5q34 0 73.5 24t73.5 77t53 141l49 231h87l-114 -536h-72l11 99h-5q-19 -24 -44.5 -49.5t-59 -42.5t-77.5 -17zM223 606l15 71h269l-15 -71h-269z
" />
    <glyph glyph-name="Ubreve" unicode="&#x16c;" horiz-adv-x="677" 
d="M300 -10q-112 0 -166.5 51.5t-54.5 146.5q0 17 3 42t9 53l92 431h89l-93 -436q-5 -23 -8 -48t-3 -41q0 -56 34.5 -88t102.5 -32q89 0 132.5 46t62.5 135l99 464h89l-100 -471q-16 -78 -50.5 -135t-92.5 -87.5t-145 -30.5zM446 784q-54 0 -89 28.5t-35 83.5v10.5t1 11.5
h52q0 -29 18 -45t62 -16q46 0 69 16.5t30 44.5h55q-16 -72 -58 -103t-105 -31z" />
    <glyph glyph-name="ubreve" unicode="&#x16d;" horiz-adv-x="579" 
d="M189 -10q-61 0 -97.5 34t-36.5 99q0 23 3.5 43.5t7.5 42.5l70 327h89l-72 -337q-9 -43 -9 -67q0 -32 16.5 -50.5t53.5 -18.5q34 0 73.5 24t73.5 77t53 141l49 231h87l-114 -536h-72l11 99h-5q-19 -24 -44.5 -49.5t-59 -42.5t-77.5 -17zM359 606q-54 0 -89 28.5t-35 83.5
v10.5t1 11.5h52q0 -29 18 -45t62 -16q46 0 69 16.5t30 44.5h55q-16 -72 -58 -103t-105 -31z" />
    <glyph glyph-name="Uring" unicode="&#x16e;" horiz-adv-x="677" 
d="M300 -10q-112 0 -166.5 51.5t-54.5 146.5q0 17 3 42t9 53l92 431h89l-93 -436q-5 -23 -8 -48t-3 -41q0 -56 34.5 -88t102.5 -32q89 0 132.5 46t62.5 135l99 464h89l-100 -471q-16 -78 -50.5 -135t-92.5 -87.5t-145 -30.5zM454 784q-48 0 -78 27.5t-30 77.5t32 77t76 27
q48 0 78.5 -27t30.5 -76q0 -51 -31 -78.5t-78 -27.5zM454 834q25 0 40.5 15t15.5 40q0 26 -15.5 40.5t-40.5 14.5q-23 0 -39 -14.5t-16 -40.5q0 -25 14.5 -40t40.5 -15z" />
    <glyph glyph-name="uring" unicode="&#x16f;" horiz-adv-x="579" 
d="M189 -10q-61 0 -97.5 34t-36.5 99q0 23 3.5 43.5t7.5 42.5l70 327h89l-72 -337q-9 -43 -9 -67q0 -32 16.5 -50.5t53.5 -18.5q34 0 73.5 24t73.5 77t53 141l49 231h87l-114 -536h-72l11 99h-5q-19 -24 -44.5 -49.5t-59 -42.5t-77.5 -17zM367 606q-48 0 -78 27.5t-30 77.5
t32 77t76 27q48 0 78.5 -27t30.5 -76q0 -51 -31 -78.5t-78 -27.5zM367 656q25 0 40.5 15t15.5 40q0 26 -15.5 40.5t-40.5 14.5q-23 0 -39 -14.5t-16 -40.5q0 -25 14.5 -40t40.5 -15z" />
    <glyph glyph-name="Uhungarumlaut" unicode="&#x170;" horiz-adv-x="677" 
d="M300 -10q-112 0 -166.5 51.5t-54.5 146.5q0 17 3 42t9 53l92 431h89l-93 -436q-5 -23 -8 -48t-3 -41q0 -56 34.5 -88t102.5 -32q89 0 132.5 46t62.5 135l99 464h89l-100 -471q-16 -78 -50.5 -135t-92.5 -87.5t-145 -30.5zM498 797q18 19 38.5 45t40 53t33.5 49h90v-10
q-13 -17 -40.5 -46t-58.5 -57.5t-57 -46.5h-46v13zM329 797q18 19 38.5 45t40 53t33.5 49h90v-10q-13 -17 -40.5 -46t-58.5 -57.5t-57 -46.5h-46v13z" />
    <glyph glyph-name="uhungarumlaut" unicode="&#x171;" horiz-adv-x="579" 
d="M189 -10q-61 0 -97.5 34t-36.5 99q0 23 3.5 43.5t7.5 42.5l70 327h89l-72 -337q-9 -43 -9 -67q0 -32 16.5 -50.5t53.5 -18.5q34 0 73.5 24t73.5 77t53 141l49 231h87l-114 -536h-72l11 99h-5q-19 -24 -44.5 -49.5t-59 -42.5t-77.5 -17zM411 619q18 19 38.5 45t40 53
t33.5 49h90v-10q-13 -17 -40.5 -46t-58.5 -57.5t-57 -46.5h-46v13zM242 619q18 19 38.5 45t40 53t33.5 49h90v-10q-13 -17 -40.5 -46t-58.5 -57.5t-57 -46.5h-46v13z" />
    <glyph glyph-name="Uogonek" unicode="&#x172;" horiz-adv-x="677" 
d="M300 -10q-112 0 -166.5 51.5t-54.5 146.5q0 17 3 42t9 53l92 431h89l-93 -436q-5 -23 -8 -48t-3 -41q0 -56 34.5 -88t102.5 -32q89 0 132.5 46t62.5 135l99 464h89l-100 -471q-16 -78 -50.5 -135t-92.5 -87.5t-145 -30.5zM290 -217q-38 0 -63.5 19.5t-25.5 60.5
q0 47 29.5 78t74.5 59h61q-19 -15 -41 -34.5t-37 -42t-15 -49.5q0 -33 33 -33q11 0 21 1.5t19 2.5v-55q-13 -4 -27.5 -5.5t-28.5 -1.5z" />
    <glyph glyph-name="uogonek" unicode="&#x173;" horiz-adv-x="579" 
d="M189 -10q-61 0 -97.5 34t-36.5 99q0 23 3.5 43.5t7.5 42.5l70 327h89l-72 -337q-9 -43 -9 -67q0 -32 16.5 -50.5t53.5 -18.5q34 0 73.5 24t73.5 77t53 141l49 231h87l-114 -536h-72l11 99h-5q-19 -24 -44.5 -49.5t-59 -42.5t-77.5 -17zM351 -217q-38 0 -63.5 19.5
t-25.5 60.5q0 47 29.5 78t74.5 59h61q-19 -15 -41 -34.5t-37 -42t-15 -49.5q0 -33 33 -33q11 0 21 1.5t19 2.5v-55q-13 -4 -27.5 -5.5t-28.5 -1.5z" />
    <glyph glyph-name="Wcircumflex" unicode="&#x174;" horiz-adv-x="856" 
d="M137 0l-30 714h88l14 -435q2 -41 0 -85t-4 -84h3q14 39 34 89.5t41 94.5l196 420h91l20 -418q3 -47 4 -98t0 -88h3q14 38 29.5 83t34.5 89l187 432h95l-324 -714h-91l-22 460q-2 33 -3 70.5t-1 68.5h-3q-10 -30 -23 -61t-36 -81l-211 -457h-92zM374 797q17 16 45 42
t54.5 54.5t40.5 50.5h85q15 -39 40 -78.5t44 -68.5v-13h-55q-18 16 -38.5 40t-40.5 51q-30 -27 -60.5 -50.5t-56.5 -40.5h-58v13z" />
    <glyph glyph-name="wcircumflex" unicode="&#x175;" horiz-adv-x="723" 
d="M79 0l-22 536h86l8 -286q2 -55 0 -99.5t-4 -73.5h4q8 21 19 49.5t23.5 57t22.5 49.5l141 303h95l17 -287q1 -37 2 -85.5t-1 -86.5h4q13 38 33 89.5t44 106.5l117 263h93l-248 -536h-106l-15 290q-2 40 -1.5 77t0.5 84h-4q-13 -37 -26.5 -68.5t-37.5 -82.5l-140 -300h-104
zM260 619q17 16 45 42t54.5 54.5t40.5 50.5h85q15 -39 40 -78.5t44 -68.5v-13h-55q-18 16 -38.5 40t-40.5 51q-30 -27 -60.5 -50.5t-56.5 -40.5h-58v13z" />
    <glyph glyph-name="Ycircumflex" unicode="&#x176;" horiz-adv-x="509" 
d="M150 0l58 268l-116 446h89l85 -358l234 358h101l-306 -449l-55 -265h-90zM201 797q17 16 45 42t54.5 54.5t40.5 50.5h85q15 -39 40 -78.5t44 -68.5v-13h-55q-18 16 -38.5 40t-40.5 51q-30 -27 -60.5 -50.5t-56.5 -40.5h-58v13z" />
    <glyph glyph-name="ycircumflex" unicode="&#x177;" horiz-adv-x="467" 
d="M-25 -240q-24 0 -39.5 3t-29.5 7v71q14 -4 30 -6.5t34 -2.5q41 0 69.5 25t54.5 73l35 62l-81 544h88l35 -265q5 -32 7.5 -70.5t4 -73t1.5 -55.5h3q7 16 20.5 48t29.5 66t28 56l156 294h94l-340 -626q-40 -75 -84.5 -112.5t-115.5 -37.5zM123 619q17 16 45 42t54.5 54.5
t40.5 50.5h85q15 -39 40 -78.5t44 -68.5v-13h-55q-18 16 -38.5 40t-40.5 51q-30 -27 -60.5 -50.5t-56.5 -40.5h-58v13z" />
    <glyph glyph-name="Ydieresis" unicode="&#x178;" horiz-adv-x="509" 
d="M150 0l58 268l-116 446h89l85 -358l234 358h101l-306 -449l-55 -265h-90zM461 809q-18 0 -30 11t-12 31q0 23 14 40t39 17q20 0 30 -11t10 -29q0 -28 -16 -43.5t-35 -15.5zM282 809q-19 0 -31 11t-12 31q0 23 14 40t39 17q21 0 30.5 -11t9.5 -29q0 -28 -15.5 -43.5
t-34.5 -15.5z" />
    <glyph glyph-name="Zacute" unicode="&#x179;" horiz-adv-x="531" 
d="M-10 0l14 70l445 564h-315l17 80h422l-13 -71l-445 -563h335l-16 -80h-444zM323 797q18 19 38.5 45t40 53t33.5 49h100v-10q-14 -17 -41.5 -46t-58.5 -57.5t-57 -46.5h-55v13z" />
    <glyph glyph-name="zacute" unicode="&#x17a;" horiz-adv-x="445" 
d="M-15 0l12 60l333 410h-230l14 66h325l-14 -71l-327 -399h255l-13 -66h-355zM242 619q18 19 38.5 45t40 53t33.5 49h100v-10q-14 -17 -41.5 -46t-58.5 -57.5t-57 -46.5h-55v13z" />
    <glyph glyph-name="Zdotaccent" unicode="&#x17b;" horiz-adv-x="531" 
d="M-10 0l14 70l445 564h-315l17 80h422l-13 -71l-445 -563h335l-16 -80h-444zM383 803q-20 0 -34 12.5t-14 34.5q0 26 15.5 45t43.5 19q46 0 46 -45q0 -31 -18 -48.5t-39 -17.5z" />
    <glyph glyph-name="zdotaccent" unicode="&#x17c;" horiz-adv-x="445" 
d="M-15 0l12 60l333 410h-230l14 66h325l-14 -71l-327 -399h255l-13 -66h-355zM302 625q-20 0 -34 12.5t-14 34.5q0 26 15.5 45t43.5 19q46 0 46 -45q0 -31 -18 -48.5t-39 -17.5z" />
    <glyph glyph-name="Zcaron" unicode="&#x17d;" horiz-adv-x="531" 
d="M-10 0l14 70l445 564h-315l17 80h422l-13 -71l-445 -563h335l-16 -80h-444zM329 784q-13 38 -38 78t-44 69v13h53q20 -16 40 -40t39 -51q31 27 62 50.5t58 40.5h57v-13q-17 -15 -45 -41.5t-54.5 -54.5t-41.5 -51h-86z" />
    <glyph glyph-name="zcaron" unicode="&#x17e;" horiz-adv-x="445" 
d="M-15 0l12 60l333 410h-230l14 66h325l-14 -71l-327 -399h255l-13 -66h-355zM248 606q-13 38 -38 78t-44 69v13h53q20 -16 40 -40t39 -51q31 27 62 50.5t58 40.5h57v-13q-17 -15 -45 -41.5t-54.5 -54.5t-41.5 -51h-86z" />
    <glyph glyph-name="longs" unicode="&#x17f;" horiz-adv-x="283" 
d="M-64 -240q-19 0 -34.5 3t-27.5 7v74q13 -4 26 -7.5t29 -3.5q31 0 53.5 28t33.5 86l135 640q15 69 38.5 107.5t59 54.5t84.5 16q26 0 52.5 -5.5t42.5 -13.5l-23 -67q-14 5 -31 9.5t-35 4.5q-40 0 -63 -22t-36 -84l-137 -650q-18 -83 -56 -130t-111 -47z" />
    <glyph glyph-name="uni0180" unicode="&#x180;" horiz-adv-x="579" 
d="M269 -10q-54 0 -87.5 27.5t-49.5 64.5h-5l-33 -82h-66l128 605h-70l14 66h70l19 89h88l-19 -89h196l-14 -66h-196q-7 -35 -16.5 -73t-16.5 -65.5t-9 -30.5h4q36 44 78.5 76.5t98.5 32.5q66 0 106.5 -46t40.5 -136q0 -73 -18 -140t-52 -119.5t-82 -83t-109 -30.5zM262 63
q40 0 73 25.5t56.5 68.5t36 97t12.5 110q0 108 -85 108q-33 0 -67.5 -24.5t-63.5 -67t-46.5 -96.5t-17.5 -113q0 -48 25 -78t77 -30z" />
    <glyph glyph-name="uni0181" unicode="&#x181;" horiz-adv-x="676" 
d="M117 0l134 637h-18q-36 0 -56 -17.5t-20 -54.5q0 -17 5 -32h-75q-3 6 -5 17.5t-2 20.5q0 64 39 103.5t122 39.5h212q99 0 155.5 -39t56.5 -125q0 -73 -44 -118.5t-117 -59.5v-5q49 -13 82 -49t33 -96q0 -73 -35.5 -122.5t-97 -74.5t-141.5 -25h-228zM410 410
q45 0 81.5 14t58.5 42.5t22 72.5q0 47 -30 72.5t-100 25.5h-101l-48 -227h117zM348 76q85 0 131 38t46 108q0 48 -31 81t-105 33h-112l-55 -260h126z" />
    <glyph glyph-name="uni0182" unicode="&#x182;" horiz-adv-x="567" 
d="M42 0l151 714h361l-17 -79h-271l-47 -223h70q84 0 131 -24t66.5 -64t19.5 -89q0 -81 -36 -133t-99.5 -77t-146.5 -25h-182zM237 76q177 0 177 152q0 59 -33 83t-92 24h-86l-56 -259h90z" />
    <glyph glyph-name="uni0183" unicode="&#x183;" horiz-adv-x="579" 
d="M269 -10q-54 0 -87.5 27.5t-49.5 64.5h-5l-33 -82h-66l161 760h390l-16 -74h-302l-22 -106q-7 -34 -15.5 -66.5t-14.5 -54t-7 -23.5h4q36 44 78.5 76.5t98.5 32.5q66 0 106.5 -46t40.5 -136q0 -73 -18 -140t-52 -119.5t-82 -83t-109 -30.5zM262 63q40 0 73 25.5
t56.5 68.5t36 97t12.5 110q0 108 -85 108q-33 0 -67.5 -24.5t-63.5 -67t-46.5 -96.5t-17.5 -113q0 -48 25 -78t77 -30z" />
    <glyph glyph-name="uni0184" unicode="&#x184;" horiz-adv-x="594" 
d="M275 -10q-108 0 -157 43.5t-49 116.5q0 14 1.5 29t5.5 31l107 504h89l-64 -302h103q80 0 129.5 -24t72.5 -64.5t23 -92.5q0 -72 -31.5 -126.5t-90 -84.5t-139.5 -30zM276 67q72 0 120.5 39.5t48.5 120.5q0 56 -39.5 82t-111.5 26h-102l-27 -125q-3 -15 -5 -28.5t-2 -25.5
q0 -89 118 -89z" />
    <glyph glyph-name="uni0185" unicode="&#x185;" horiz-adv-x="573" 
d="M252 -10q-83 0 -134.5 46.5t-51.5 140.5q0 20 3.5 43t8.5 47l105 493h88l-39 -185q-5 -22 -12 -50.5t-13.5 -53t-10.5 -35.5h4q19 24 44.5 49t58 42.5t70.5 17.5q74 0 112.5 -47.5t38.5 -139.5q0 -71 -17.5 -137t-52 -118t-85 -82.5t-117.5 -30.5zM253 63q44 0 78 27
t57 71.5t34.5 96.5t11.5 103q0 111 -85 111q-39 0 -74.5 -28t-62.5 -72.5t-42.5 -95.5t-15.5 -98q0 -55 25 -85t74 -30z" />
    <glyph glyph-name="uni0186" unicode="&#x186;" horiz-adv-x="587" 
d="M299 724q119 0 186.5 -73t67.5 -200q0 -64 -15 -130t-45.5 -125t-77 -105.5t-108.5 -73.5t-140 -27q-100 0 -174 40l36 74q27 -14 60.5 -24.5t77.5 -10.5q75 0 129.5 33.5t90.5 89t53.5 123t17.5 134.5q0 91 -46 143.5t-129 52.5q-41 0 -80.5 -8t-77.5 -21v78
q39 14 79 22t95 8z" />
    <glyph glyph-name="uni0187" unicode="&#x187;" horiz-adv-x="587" 
d="M326 -10q-119 0 -186.5 73t-67.5 200q0 64 15 130t45.5 125t77 105.5t108.5 73.5t140 27q57 0 102 -13l7 33q14 65 46.5 89.5t75.5 24.5q17 0 31.5 -3t22.5 -8v-73q-11 4 -22.5 6.5t-23.5 2.5q-22 0 -35 -12.5t-21 -44.5l-28 -122q-27 14 -67.5 27.5t-87.5 13.5
q-75 0 -129.5 -33.5t-90.5 -89t-53.5 -122.5t-17.5 -135q0 -91 46.5 -143.5t128.5 -52.5q41 0 80.5 8t77.5 21v-78q-39 -14 -78.5 -22t-95.5 -8z" />
    <glyph glyph-name="uni0188" unicode="&#x188;" horiz-adv-x="453" 
d="M247 -10q-89 0 -144 50t-55 150q0 72 19.5 136.5t56 113.5t88.5 77.5t116 28.5q14 0 29 -1.5t29 -3.5l23 110q14 66 46.5 90t75.5 24q17 0 31.5 -3t22.5 -8v-73q-11 4 -22.5 6.5t-23.5 2.5q-22 0 -34.5 -12t-19.5 -45l-41 -190q-28 14 -55 21.5t-60 7.5q-57 0 -100 -38.5
t-67 -102.5t-24 -140q0 -61 31.5 -94.5t86.5 -33.5q35 0 66.5 10t62.5 23v-74q-28 -14 -62.5 -23t-75.5 -9z" />
    <glyph glyph-name="Dtail" unicode="&#x189;" horiz-adv-x="667" 
d="M41 0l67 315h-75l17 77h74l68 322h169q129 0 202 -70t73 -215q0 -124 -48.5 -221t-142 -152.5t-228.5 -55.5h-176zM222 77q104 0 175 47t108 127t37 179q0 110 -52.5 158.5t-139.5 48.5h-85l-52 -245h157l-17 -77h-156l-51 -238h76z" />
    <glyph glyph-name="uni018A" unicode="&#x18a;" horiz-adv-x="743" 
d="M117 0l134 637h-18q-36 0 -56 -17.5t-20 -54.5q0 -17 5 -32h-75q-3 6 -5 17.5t-2 20.5q0 64 39 103.5t122 39.5h196q129 0 202 -70t73 -215q0 -124 -48.5 -221t-142 -152.5t-228.5 -55.5h-176zM298 77q104 0 175 47t108 127t37 179q0 110 -52.5 158.5t-139.5 48.5h-85
l-119 -560h76z" />
    <glyph glyph-name="uni018B" unicode="&#x18b;" horiz-adv-x="571" 
d="M262 0q-114 0 -164 49t-50 128q0 115 79.5 175t230.5 60h64l47 223h-303l17 79h391l-151 -714h-161zM274 77h76l55 258h-62q-92 0 -148 -37t-56 -118q0 -54 35.5 -78.5t99.5 -24.5z" />
    <glyph glyph-name="uni018C" unicode="&#x18c;" horiz-adv-x="579" 
d="M193 -10q-64 0 -104.5 46t-40.5 137q0 74 18 140.5t52.5 119t83 82.5t109.5 30q54 0 86.5 -27.5t48.5 -64.5h5q5 34 10 65t12 67l22 101h-302l16 74h388l-161 -760h-72l11 99h-4q-36 -45 -79 -77t-99 -32zM223 63q33 0 67 24.5t63 66.5t46.5 96t17.5 114q0 48 -23.5 78
t-76.5 30q-40 0 -72.5 -25.5t-56.5 -68.5t-37 -97t-13 -110q0 -108 85 -108z" />
    <glyph glyph-name="uni018D" unicode="&#x18d;" horiz-adv-x="554" 
d="M310 544q66 0 110.5 -26t66.5 -69.5t22 -95.5q0 -112 -62.5 -187.5t-177.5 -105.5q35 -27 54 -57t19 -80q0 -67 -48.5 -110.5t-131.5 -43.5q-58 0 -101.5 18.5t-72.5 37.5l35 63q26 -16 61.5 -32t78.5 -16q50 0 72.5 23t22.5 60q0 38 -23 63t-63 57q-52 42 -88 94.5
t-36 131.5q0 73 29.5 135.5t88 101t144.5 38.5zM301 471q-51 0 -88 -27t-56.5 -72.5t-19.5 -101.5q0 -59 23.5 -101.5t58.5 -65.5q87 21 143.5 81.5t56.5 156.5q0 61 -30 95.5t-88 34.5z" />
    <glyph glyph-name="uni018E" unicode="&#x18e;" horiz-adv-x="514" 
d="M4 0l17 79h273l54 255h-255l15 78h256l48 223h-274l17 79h362l-151 -714h-362z" />
    <glyph glyph-name="uni018F" unicode="&#x18f;" horiz-adv-x="661" 
d="M248 -10q-73 0 -119 22.5t-67.5 60.5t-21.5 84q0 75 42.5 127t139 79t258.5 27h51q2 18 2.5 28t0.5 26q0 58 -18.5 103.5t-56 72t-95.5 26.5q-60 0 -111.5 -13t-96.5 -33v82q43 18 93 30.5t123 12.5q85 0 141.5 -35t85 -97t28.5 -143q0 -94 -28.5 -177.5t-80 -147
t-120.5 -99.5t-150 -36zM247 70q93 0 164 63t105 180h-54q-127 0 -198 -19.5t-99.5 -54t-28.5 -79.5q0 -38 26.5 -64t84.5 -26z" />
    <glyph glyph-name="uni0190" unicode="&#x190;" horiz-adv-x="538" 
d="M265 -10q-81 0 -132.5 24.5t-75.5 65.5t-24 91q0 69 27.5 111t75 64t108.5 31l1 4q-48 12 -77.5 47.5t-29.5 91.5q0 67 31.5 112.5t85.5 68.5t121 23q45 0 78 -7t63 -22t65 -40l-41 -61q-37 27 -74.5 41.5t-91.5 14.5q-62 0 -104 -34t-42 -102q0 -48 34 -77.5t112 -29.5
h89l-16 -75h-93q-105 0 -167 -36t-62 -120q0 -52 36 -82t106 -30q50 0 102.5 14t99.5 36v-82q-46 -22 -96.5 -32t-108.5 -10z" />
    <glyph glyph-name="uni0191" unicode="&#x191;" horiz-adv-x="557" 
d="M46 -241q-64 0 -99.5 38t-35.5 91q0 34 15 65l76 -29q-2 -7 -3.5 -14t-1.5 -17q0 -22 13.5 -38.5t38.5 -16.5q31 0 51 28t33 91l159 757h342l-16 -79h-254l-46 -223h236l-17 -79h-236l-81 -386q-20 -97 -62.5 -142.5t-111.5 -45.5z" />
    <glyph glyph-name="fhook" unicode="&#x192;" horiz-adv-x="410" 
d="M46 -242q-56 0 -93.5 34t-37.5 91q0 32 10 54l72 -23q-4 -12 -4 -27q0 -25 14 -40.5t36 -15.5q32 0 49.5 28t27.5 77l114 533h-93l7 37l100 33l11 48q16 69 39.5 107.5t58.5 54.5t84 16q25 0 51.5 -5.5t42.5 -13.5l-23 -67q-14 5 -30.5 9.5t-36.5 4.5q-39 0 -61 -22
t-37 -84l-12 -51h115l-13 -67h-115l-114 -534q-18 -83 -54 -130t-108 -47z" />
    <glyph glyph-name="uni0193" unicode="&#x193;" horiz-adv-x="678" 
d="M343 -10q-127 0 -199 71t-72 198q0 98 27.5 182.5t79 148t122 99t156.5 35.5q40 0 72.5 -5t61.5 -13l9 39q15 65 47 89t75 24q17 0 31.5 -3t22.5 -8v-73q-11 4 -22.5 6.5t-23.5 2.5q-22 0 -35 -12.5t-21 -44.5l-29 -125q-47 21 -92.5 32.5t-96.5 11.5q-82 0 -147.5 -49
t-103.5 -134.5t-38 -196.5q0 -55 19.5 -99.5t60.5 -70.5t105 -26q38 0 69.5 5.5t53.5 12.5l46 211h-140l17 78h229l-76 -349q-45 -16 -95 -26.5t-113 -10.5z" />
    <glyph glyph-name="Gammalatin" unicode="&#x194;" horiz-adv-x="552" 
d="M170 -240q-46 0 -72.5 31.5t-26.5 77.5q0 50 30 108.5t86 129.5l-95 607h89l52 -369q6 -40 10.5 -81t5.5 -77q14 35 34.5 76t42.5 80l216 371h102l-363 -613q24 -99 24 -170q0 -73 -34 -122t-101 -49zM177 -162q18 0 29 17t15.5 42t4.5 48q0 19 -2.5 40t-7.5 40
q-34 -51 -48 -89.5t-14 -62.5q0 -35 23 -35z" />
    <glyph glyph-name="uni0195" unicode="&#x195;" horiz-adv-x="878" 
d="M551 -10q-87 0 -132 39t-45 107q0 11 2 24l4 26l31 150q5 24 7 39t2 27q0 33 -15.5 51.5t-50.5 18.5q-33 0 -70 -23.5t-68.5 -76.5t-50.5 -141l-49 -231h-88l161 760h88l-43 -197q-6 -30 -15 -62.5t-17 -64.5h5q18 25 42.5 50t57 42t73.5 17q59 0 94 -34.5t35 -102.5
q0 -19 -3 -39t-8 -43l-29 -134q-6 -27 -6 -45q0 -84 95 -84q59 0 91 36.5t48 115.5l69 321h89l-69 -327q-25 -120 -80 -169.5t-155 -49.5z" />
    <glyph glyph-name="Iotalatin" unicode="&#x196;" horiz-adv-x="311" 
d="M174 -10q-52 0 -87.5 26t-35.5 91q0 15 3 33.5t7 39.5l113 534h88l-114 -537q-3 -13 -5.5 -29t-2.5 -30q0 -24 11 -40t40 -16q17 0 33 3.5t36 9.5v-67q-13 -6 -38 -12t-48 -6z" />
    <glyph glyph-name="uni0197" unicode="&#x197;" horiz-adv-x="324" 
d="M-20 0l10 49l85 20l55 258h-83l17 78h82l51 240l-76 19l10 50h250l-10 -50l-86 -19l-51 -240h84l-17 -78h-84l-54 -258l77 -20l-10 -49h-250z" />
    <glyph glyph-name="uni0198" unicode="&#x198;" horiz-adv-x="572" 
d="M41 0l151 714h89l-74 -347l62 66l216 221q39 41 66 53.5t54 12.5q14 0 27 -3t20 -6v-71q-11 2 -19.5 3.5t-18.5 1.5q-17 0 -34 -9.5t-46 -39.5l-193 -196l169 -400h-98l-139 346l-83 -61l-60 -285h-89z" />
    <glyph glyph-name="uni0199" unicode="&#x199;" horiz-adv-x="495" 
d="M159 625q14 69 45 104.5t94 35.5q17 0 33.5 -4t24.5 -9v-73q-8 4 -22 7t-30 3q-20 0 -34 -13t-21 -45l-37 -173q-17 -80 -29.5 -123.5t-17.5 -57.5h2l254 259h104l-230 -230l143 -306h-97l-113 251l-72 -57l-40 -194h-89z" />
    <glyph glyph-name="uni019A" unicode="&#x19a;" horiz-adv-x="258" 
d="M27 0l76 354h-64l14 66h64l72 340h88l-73 -340h66l-14 -66h-66l-75 -354h-88z" />
    <glyph glyph-name="uni019B" unicode="&#x19b;" horiz-adv-x="491" 
d="M389 -10q-42 0 -65 22.5t-29 80.5l-20 189q-4 32 -6.5 72.5t-2.5 77.5q-13 -34 -27 -65.5t-31 -61.5l-171 -305h-93l304 525l-8 63l-104 -32l-18 60l109 34q-8 20 -22.5 31.5t-38.5 11.5q-14 0 -26.5 -1.5t-23.5 -3.5l-11 70q14 3 32.5 5.5t36.5 2.5q59 0 89.5 -22
t44.5 -69l97 31l18 -61l-103 -32l57 -499q3 -25 11.5 -39t24.5 -14q6 0 15.5 1.5t17.5 4.5v-66q-10 -4 -26.5 -7.5t-30.5 -3.5z" />
    <glyph glyph-name="uni019C" unicode="&#x19c;" horiz-adv-x="959" 
d="M230 -10q-70 0 -116 39.5t-46 117.5q0 30 7 61l107 506h89l-107 -506q-6 -27 -6 -49q0 -43 22 -67t65 -24q82 0 126 50t64 144l96 452h89l-107 -506q-6 -28 -6 -51q0 -41 21.5 -65t64.5 -24q57 0 93.5 27t59.5 75.5t36 111.5l92 432h88l-151 -714h-65l8 82h-4
q-63 -92 -177 -92q-111 0 -139 100h-4q-39 -51 -89 -75.5t-111 -24.5z" />
    <glyph glyph-name="uni019D" unicode="&#x19d;" horiz-adv-x="707" 
d="M-38 -240q-16 0 -32.5 4.5t-25.5 10.5v76q8 -4 19 -8t24 -4q28 0 47 17.5t29 64.5l168 793h95l219 -590h3q5 36 14.5 91.5t20.5 105.5l84 393h85l-151 -714h-95l-221 592h-3q-2 -21 -8 -55.5t-13 -74t-15 -76.5l-102 -480q-15 -70 -47.5 -108t-94.5 -38z" />
    <glyph glyph-name="uni019E" unicode="&#x19e;" horiz-adv-x="579" 
d="M422 336q5 23 7.5 39t2.5 30q0 34 -17.5 49t-49.5 15q-35 0 -74 -23.5t-71.5 -76t-51.5 -138.5l-50 -231h-94l115 539h78l-11 -99h2q19 27 45.5 52t60 41t73.5 16q66 0 102.5 -36t36.5 -99q0 -23 -3.5 -46.5t-7.5 -41.5l-123 -566h-93z" />
    <glyph glyph-name="uni019F" unicode="&#x19f;" horiz-adv-x="721" 
d="M337 -10q-128 0 -196.5 74.5t-68.5 202.5q0 92 24.5 175t71.5 146.5t114 100t151 36.5q122 0 189.5 -75t67.5 -206q0 -93 -22.5 -175t-67 -144.5t-110.5 -98.5t-153 -36zM593 403q1 10 1.5 20.5t0.5 22.5q0 95 -45 147.5t-123 52.5q-62 0 -111 -31t-83 -86t-51 -126h411z
M340 69q63 0 112 33.5t82.5 91.5t48.5 131h-414q-3 -27 -3 -56q0 -94 46.5 -147t127.5 -53z" />
    <glyph glyph-name="Ohorn" unicode="&#x1a0;" horiz-adv-x="719" 
d="M337 -10q-128 0 -196.5 74.5t-68.5 202.5q0 92 24.5 175t71.5 146.5t114 100t151 36.5q73 0 127 -27.5t86 -78.5q44 18 62.5 53t26.5 88h96l4 -11q-16 -67 -55.5 -109.5t-110.5 -71.5q10 -27 15.5 -58t5.5 -66q0 -93 -22.5 -175t-67 -144.5t-110.5 -98.5t-153 -36z
M340 69q60 0 107 30t80 82.5t50.5 120.5t17.5 144q0 95 -45 147.5t-123 52.5q-60 0 -108 -29.5t-82 -81t-52 -120t-18 -146.5q0 -94 46 -147t127 -53z" />
    <glyph glyph-name="ohorn" unicode="&#x1a1;" horiz-adv-x="568" 
d="M248 -8q-93 0 -146.5 55.5t-53.5 150.5q0 62 17 123t50.5 111t84 80.5t116.5 30.5q106 0 159 -70q47 20 65.5 57.5t26.5 87.5h95l4 -11q-16 -66 -54.5 -109.5t-111.5 -70.5q16 -39 16 -91q0 -61 -17 -122t-50.5 -111t-83.5 -80.5t-117 -30.5zM253 65q48 0 87 33.5
t62.5 96.5t23.5 151q0 30 -10.5 58.5t-34.5 47t-64 18.5q-55 0 -95.5 -37.5t-62.5 -100t-22 -137.5q0 -62 30.5 -96t85.5 -34z" />
    <glyph glyph-name="uni01A2" unicode="&#x1a2;" horiz-adv-x="1005" 
d="M335 -10q-127 0 -195 74.5t-68 202.5q0 93 25 175.5t72 146t112.5 100t147.5 36.5q64 0 113.5 -23t81.5 -66q38 40 88 64.5t104 24.5q80 0 121.5 -41.5t41.5 -113.5q0 -15 -1.5 -30.5t-5.5 -32.5l-106 -507h-89l107 507q6 29 6 52q0 88 -88 88q-45 0 -82 -19.5t-65 -45.5
q25 -61 25 -138q0 -93 -22.5 -175t-66.5 -144.5t-108 -98.5t-148 -36zM338 69q57 0 102.5 30t77.5 82.5t49.5 120.5t17.5 144q0 95 -44.5 147.5t-117.5 52.5q-57 0 -104 -29t-81 -81t-52.5 -120.5t-18.5 -146.5q0 -94 46 -147t125 -53z" />
    <glyph glyph-name="uni01A3" unicode="&#x1a3;" horiz-adv-x="797" 
d="M646 345q7 31 7 56q0 71 -65 71q-28 0 -54 -12.5t-46 -35.5q6 -19 9.5 -41t3.5 -47q0 -61 -17 -122t-50 -111t-82 -80.5t-114 -30.5q-89 0 -139.5 55.5t-50.5 150.5q0 62 17 123t50.5 111t84 80.5t116.5 30.5q99 0 147 -71q32 37 71.5 55.5t78.5 18.5q63 0 95.5 -36
t32.5 -100q0 -29 -6 -61l-125 -589h-89zM243 65q45 0 83.5 33.5t61.5 96.5t23 151q0 30 -9 58.5t-29.5 47t-55.5 18.5q-55 0 -95.5 -37.5t-62.5 -100t-22 -137.5q0 -62 27 -96t79 -34z" />
    <glyph glyph-name="uni01A4" unicode="&#x1a4;" horiz-adv-x="642" 
d="M116 0l134 637h-17q-36 0 -56 -17.5t-20 -54.5q0 -17 5 -32h-75q-3 6 -5 17.5t-2 20.5q0 64 39 103.5t122 39.5h187q116 0 165 -51.5t49 -134.5q0 -121 -80 -185t-234 -64h-64l-59 -279h-89zM342 354q96 0 152.5 41.5t56.5 129.5q0 59 -33.5 85.5t-101.5 26.5h-76
l-60 -283h62z" />
    <glyph glyph-name="uni01A5" unicode="&#x1a5;" horiz-adv-x="579" 
d="M160 625q15 71 45 105.5t93 34.5q17 0 33.5 -4t24.5 -9v-73q-8 4 -22 7t-30 3q-20 0 -34 -14t-21 -46l-10 -48q-9 -43 -19 -80t-18 -65h4q36 44 79 76.5t99 32.5q66 0 106 -46.5t40 -136.5q0 -73 -18 -139.5t-51.5 -119t-81.5 -83t-109 -30.5q-54 0 -88 27.5t-51 64.5h-5
q-1 -15 -4.5 -44t-7.5 -47l-49 -231h-87zM262 63q40 0 73 25.5t56.5 68.5t36 97t12.5 110q0 108 -85 108q-33 0 -67.5 -24t-63 -66t-46.5 -96.5t-18 -114.5q0 -48 24.5 -78t77.5 -30z" />
    <glyph glyph-name="uni01A6" unicode="&#x1a6;" horiz-adv-x="573" 
d="M390 -100l-102 295h-118l-41 -195h-88l151 714h89l-21 -100h68q220 0 220 -181q0 -77 -40.5 -134t-137.5 -84l118 -315h-98zM265 271q100 0 145.5 43.5t45.5 112.5q0 61 -34 85t-102 24h-77l-56 -265h78z" />
    <glyph glyph-name="uni01A7" unicode="&#x1a7;" horiz-adv-x="505" 
d="M228 -10q-95 0 -152 45t-57 128q0 57 20.5 95t54.5 63t76.5 42.5t86.5 33.5q61 22 99 42t56.5 46.5t18.5 68.5t-29 66.5t-79 24.5q-38 0 -73.5 -10.5t-70.5 -26.5l-27 76q39 18 86 29t96 11q89 0 140 -47.5t51 -121.5q0 -66 -29.5 -109t-80 -71.5t-114.5 -52.5
q-68 -25 -110.5 -44.5t-61.5 -44t-19 -65.5q0 -46 33 -73t91 -27q53 0 95 10.5t79 26.5v-78q-34 -17 -79.5 -27t-100.5 -10z" />
    <glyph glyph-name="uni01A8" unicode="&#x1a8;" horiz-adv-x="432" 
d="M187 -10q-82 0 -129.5 38.5t-47.5 107.5q0 41 17 70t44.5 48.5t60 32t63.5 21.5q57 16 88.5 29.5t43.5 30t12 41.5q0 30 -21 47.5t-62 17.5q-30 0 -63 -10t-67 -24l-23 69q38 17 79.5 27t82.5 10q76 0 119 -35.5t43 -96.5q0 -54 -25 -86.5t-69 -52t-101 -36.5
q-35 -10 -65.5 -22.5t-49 -31t-18.5 -50.5q0 -34 23.5 -54t72.5 -20q44 0 80.5 12.5t69.5 28.5v-77q-32 -16 -69 -25.5t-89 -9.5z" />
    <glyph glyph-name="uni01A9" unicode="&#x1a9;" horiz-adv-x="523" 
d="M-10 0l15 74l256 305l-120 260l16 75h417l-17 -80h-207h-37t-44 0.5t-32 0.5l109 -249l-2 -11l-240 -295q37 -1 75 -0.5t78 0.5h193l-16 -80h-444z" />
    <glyph glyph-name="uni01AA" unicode="&#x1aa;" horiz-adv-x="293" 
d="M148 -240q-52 0 -87.5 26t-35.5 91q0 15 3 34.5t7 40.5l128 595h-27q-58 0 -85.5 30.5t-27.5 73.5q0 52 32.5 85.5t102.5 33.5q55 0 83 -31t28 -79q0 -10 -1 -19.5t-3 -20.5l-143 -673q-3 -13 -5.5 -29t-2.5 -30q0 -24 11 -40t40 -16q17 0 33 3.5t36 9.5v-67
q-13 -6 -38 -12t-48 -6zM145 619h32l3 13q3 14 3 25q0 41 -37 41q-21 0 -32 -12t-11 -30q0 -19 12 -28t30 -9z" />
    <glyph glyph-name="uni01AB" unicode="&#x1ab;" horiz-adv-x="332" 
d="M111 -240q-16 0 -31 3.5t-23 7.5v73q11 -4 22.5 -6.5t23.5 -2.5q23 0 35 12t19 45l21 98q-52 2 -86.5 28t-34.5 89q0 32 9 71l61 291h-83l8 40l90 38l62 111h52l-27 -122h135l-14 -67h-134l-62 -292q-3 -13 -6 -29.5t-3 -30.5q0 -23 12.5 -39t40.5 -16q18 0 38.5 3.5
t39.5 9.5l-43 -201q-14 -66 -46 -90t-76 -24z" />
    <glyph glyph-name="uni01AC" unicode="&#x1ac;" horiz-adv-x="540" 
d="M191 0l134 635h-92q-37 0 -56.5 -16.5t-19.5 -53.5q0 -17 5 -32h-75q-3 6 -5 17.5t-2 20.5q0 64 39 103.5t122 39.5h387l-16 -79h-196l-135 -635h-90z" />
    <glyph glyph-name="uni01AD" unicode="&#x1ad;" horiz-adv-x="332" 
d="M185 -10q-54 0 -91 26t-37 91q0 32 9 71l61 291h-83l8 40l92 39l14 63q17 77 52 115.5t108 38.5q20 0 39 -4t29 -9v-73q-9 3 -27 6.5t-38 3.5q-60 0 -74 -68l-18 -85h135l-14 -67h-134l-62 -292q-3 -13 -6 -29.5t-3 -30.5q0 -23 12.5 -39t40.5 -16q18 0 35 3.5t36 9.5
v-67q-12 -6 -37 -12t-47 -6z" />
    <glyph glyph-name="uni01AE" unicode="&#x1ae;" horiz-adv-x="501" 
d="M244 -240q-52 0 -84 28.5t-32 82.5q0 21 6 46l152 718h-196l17 79h482l-16 -79h-196l-151 -714q-4 -19 -4 -35q0 -47 48 -47q22 0 44 10v-76q-10 -6 -30 -9.5t-40 -3.5z" />
    <glyph glyph-name="Uhorn" unicode="&#x1af;" horiz-adv-x="727" 
d="M303 -10q-112 0 -168 52.5t-56 147.5q0 18 3.5 43.5t8.5 49.5l92 431h89l-93 -437q-11 -52 -11 -82q0 -57 32 -91.5t105 -34.5q86 0 130.5 45.5t64.5 136.5l99 463h89l-21 -96q38 8 64.5 41.5t36.5 100.5h95l4 -11q-17 -79 -74 -128t-138 -64l-67 -314q-16 -78 -50 -135
t-91 -87.5t-144 -30.5z" />
    <glyph glyph-name="uhorn" unicode="&#x1b0;" horiz-adv-x="626" 
d="M189 -10q-61 0 -97.5 34.5t-36.5 101.5q0 20 3.5 40.5t7.5 42.5l70 327h89l-72 -337q-9 -43 -9 -65q0 -34 16.5 -52.5t53.5 -18.5q34 0 73.5 24t73.5 77t53 141l49 231h87l-13 -61q40 8 66 41.5t36 101.5h95l4 -11q-18 -80 -75 -128.5t-139 -64.5l-88 -414h-72l11 99h-5
q-19 -24 -44.5 -49.5t-59 -42.5t-77.5 -17z" />
    <glyph glyph-name="Upsilonlatin" unicode="&#x1b1;" horiz-adv-x="732" 
d="M344 -11q-90 0 -150 36.5t-90 98.5t-30 140q0 84 28 153.5t76 124.5t107 93h-169l16 79h288l-14 -70q-67 -40 -121 -95.5t-85 -126.5t-31 -159q0 -55 19.5 -99.5t60 -70t102.5 -25.5q79 0 133.5 43.5t82.5 115.5t28 155q0 93 -27.5 154t-74.5 108l14 70h280l-16 -79h-179
q38 -37 68 -99t30 -158q0 -78 -23.5 -148t-68 -124.5t-109 -85.5t-145.5 -31z" />
    <glyph glyph-name="uni01B2" unicode="&#x1b2;" horiz-adv-x="677" 
d="M300 -10q-112 0 -166.5 51.5t-54.5 146.5q0 17 3 42t9 53l92 431h89l-93 -436q-5 -23 -8 -48t-3 -41q0 -56 34.5 -88t102.5 -32q89 0 132.5 46t62.5 135l65 303q2 11 3.5 20.5t1.5 17.5q0 54 -49 54q-31 0 -64 -18v78q18 8 41.5 13.5t46.5 5.5q47 0 81 -28t34 -89
q0 -11 -1 -22.5t-4 -25.5l-67 -316q-16 -78 -50.5 -135t-92.5 -87.5t-145 -30.5z" />
    <glyph glyph-name="uni01B3" unicode="&#x1b3;" horiz-adv-x="539" 
d="M150 0l58 268l-116 446h89l85 -358l170 270q28 44 58 69t77 25q10 0 27.5 -2.5t25.5 -6.5l-16 -71q-12 5 -26 5q-13 0 -31.5 -7t-42.5 -44l-213 -329l-55 -265h-90z" />
    <glyph glyph-name="uni01B4" unicode="&#x1b4;" horiz-adv-x="502" 
d="M-25 -240q-24 0 -39.5 3t-29.5 7v71q14 -4 30 -6.5t34 -2.5q41 0 69.5 25t54.5 73l35 62l-81 544h88l35 -265q5 -32 7.5 -70.5t4 -73t1.5 -55.5h3q7 16 20.5 48t29.5 66t28 56l110 207q30 56 53.5 76.5t60.5 20.5q16 0 29 -3.5t23 -8.5l-13 -65q-4 2 -11 3.5t-14 1.5
q-16 0 -26 -13t-25 -41l-277 -510q-40 -75 -84.5 -112.5t-115.5 -37.5z" />
    <glyph glyph-name="uni01B5" unicode="&#x1b5;" horiz-adv-x="531" 
d="M-10 0l14 70l210 266h-127l15 71h168l179 227h-315l17 80h422l-13 -71l-187 -236h117l-15 -71h-158l-202 -256h335l-16 -80h-444z" />
    <glyph glyph-name="uni01B6" unicode="&#x1b6;" horiz-adv-x="445" 
d="M-15 0l12 60l149 183h-95l15 70h137l127 157h-230l14 66h325l-14 -71l-125 -152h95l-15 -70h-137l-145 -177h255l-13 -66h-355z" />
    <glyph glyph-name="uni01B7" unicode="&#x1b7;" horiz-adv-x="529" 
d="M178 -10q-42 0 -89 10.5t-82 29.5v84q38 -22 84 -36t92 -14q70 0 112 23t60.5 59t18.5 76q0 59 -37.5 85t-101.5 26h-78l14 70l245 231h-279l17 80h392l-15 -71l-259 -242q85 -2 140.5 -45t55.5 -131q0 -65 -31.5 -118.5t-96 -85t-162.5 -31.5z" />
    <glyph glyph-name="uni01B8" unicode="&#x1b8;" horiz-adv-x="538" 
d="M260 -10q-117 0 -172 52t-55 134q0 60 23.5 102.5t63.5 69t90.5 39.5t104.5 15l-173 241l15 71h409l-17 -80h-311l173 -237l-13 -64h-34q-62 0 -116.5 -13t-88 -47t-33.5 -97q0 -55 38.5 -83.5t111.5 -28.5q46 0 96.5 14t97.5 36v-83q-46 -22 -97.5 -31.5t-112.5 -9.5z
" />
    <glyph glyph-name="uni01B9" unicode="&#x1b9;" horiz-adv-x="464" 
d="M179 -240q-70 0 -118 26.5t-72.5 72.5t-24.5 104q0 88 39.5 145t104.5 86.5t141 33.5l-160 244l13 64h372l-15 -74h-278l161 -243l-13 -61h-55q-62 0 -112.5 -20t-80 -62t-29.5 -107q0 -64 38.5 -100t98.5 -36q54 0 93 12.5t73 28.5v-77q-33 -16 -77 -26.5t-99 -10.5z
" />
    <glyph glyph-name="uni01BA" unicode="&#x1ba;" horiz-adv-x="464" 
d="M109 -240q-81 0 -124.5 31.5t-43.5 83.5q0 40 17.5 67t60 45t116.5 29q82 13 129 39.5t47 90.5q0 37 -20.5 57t-55 27.5t-77.5 7.5h-50l11 61l198 163h-245l15 74h363l-13 -64l-209 -169q74 -6 122.5 -46t48.5 -114q0 -93 -63.5 -139.5t-206.5 -66.5q-61 -9 -83.5 -22
t-22.5 -37q0 -19 21.5 -32t66.5 -13q47 0 85.5 10.5t67.5 23.5v-76q-28 -13 -68 -22t-87 -9z" />
    <glyph glyph-name="uni01BB" unicode="&#x1bb;" horiz-adv-x="530" 
d="M-16 0l16 75l264 274h-173l15 70h220q44 51 63.5 94t19.5 92q0 38 -23.5 61.5t-62.5 23.5q-44 0 -81 -18t-72 -44l-42 60q41 33 89.5 55t107.5 22q56 0 95.5 -20t60 -54t20.5 -75q0 -52 -19.5 -101t-61.5 -96h97l-15 -70h-135l-254 -265v-4h327l-15 -80h-441z" />
    <glyph glyph-name="uni01BC" unicode="&#x1bc;" horiz-adv-x="530" 
d="M190 -10q-49 0 -97.5 8.5t-85.5 30.5v82q38 -22 86.5 -34.5t94.5 -12.5q94 0 145.5 45.5t51.5 129.5q0 66 -39 97t-104 31h-101l59 267h-78l17 80h408l-17 -80h-245l-44 -193h19q108 0 162.5 -53t54.5 -140q0 -119 -73.5 -188.5t-213.5 -69.5z" />
    <glyph glyph-name="uni01BD" unicode="&#x1bd;" horiz-adv-x="462" 
d="M161 -10q-108 0 -161 35v79q28 -16 68.5 -29t90.5 -13q37 0 72.5 12t59 40t23.5 75q0 43 -38 63.5t-101 20.5h-68l41 189h-63l15 74h345l-15 -74h-201l-26 -117h16q66 0 105 -22t56.5 -57t17.5 -74q0 -89 -60 -145.5t-177 -56.5z" />
    <glyph glyph-name="uni01BE" unicode="&#x1be;" horiz-adv-x="427" 
d="M152 -10q-44 0 -85.5 9.5t-66.5 25.5v79q26 -16 64.5 -29.5t81.5 -13.5q74 0 104.5 27.5t30.5 60.5q0 24 -15.5 43.5t-59.5 44.5q-28 17 -46.5 37.5t-18.5 57.5q0 21 6 46l19 91h-83l8 40l90 38l62 111h52l-27 -122h135l-14 -67h-134l-20 -93q-4 -16 -4 -30q0 -18 8 -29
t24 -20q50 -28 76 -59t26 -81q0 -79 -58 -123t-155 -44z" />
    <glyph glyph-name="uni01BF" unicode="&#x1bf;" horiz-adv-x="567" 
d="M-22 -240l164 776h72l-12 -101h4q26 44 68.5 77t103.5 33q75 0 111.5 -47.5t36.5 -124.5q0 -73 -31.5 -138t-87.5 -117t-131 -85.5t-162 -42.5l-49 -230h-87zM129 67q65 8 120.5 35.5t97.5 69t65 91.5t23 102q0 46 -19.5 76.5t-66.5 30.5q-43 0 -80 -32.5t-64 -86
t-40 -116.5z" />
    <glyph glyph-name="uni01C0" unicode="&#x1c0;" horiz-adv-x="316" 
d="M62 0l162 760h78l-162 -760h-78z" />
    <glyph glyph-name="uni01C1" unicode="&#x1c1;" horiz-adv-x="542" 
d="M62 0l162 760h78l-162 -760h-78zM288 0l162 760h78l-162 -760h-78z" />
    <glyph glyph-name="uni01C2" unicode="&#x1c2;" horiz-adv-x="516" 
d="M161 0l57 267h-154l16 72h154l20 95h-154l15 72h154l54 254h78l-54 -254h154l-15 -72h-154l-20 -95h154l-16 -72h-154l-57 -267h-78z" />
    <glyph glyph-name="uni01C3" unicode="&#x1c3;" horiz-adv-x="261" 
d="M77 201l91 513h107l-127 -513h-71zM73 -14q-53 0 -53 54q0 32 18 56.5t57 24.5q23 0 37 -14t14 -40q0 -29 -17.5 -55t-55.5 -26z" />
    <glyph glyph-name="uni01C4" unicode="&#x1c4;" horiz-adv-x="1198" 
d="M41 0l151 714h169q129 0 202 -70t73 -215q0 -124 -48.5 -221t-142 -152.5t-228.5 -55.5h-176zM222 77q104 0 175 47t108 127t37 179q0 110 -52.5 158.5t-139.5 48.5h-85l-119 -560h76zM657 0l14 70l445 564h-315l17 80h422l-13 -71l-445 -563h335l-16 -80h-444zM996 784
q-13 38 -38 78t-44 69v13h53q20 -16 40 -40t39 -51q31 27 62 50.5t58 40.5h57v-13q-17 -15 -45 -41.5t-54.5 -54.5t-41.5 -51h-86z" />
    <glyph glyph-name="uni01C5" unicode="&#x1c5;" horiz-adv-x="1112" 
d="M41 0l151 714h169q129 0 202 -70t73 -215q0 -124 -48.5 -221t-142 -152.5t-228.5 -55.5h-176zM222 77q104 0 175 47t108 127t37 179q0 110 -52.5 158.5t-139.5 48.5h-85l-119 -560h76zM652 0l12 60l333 410h-230l14 66h325l-14 -71l-327 -399h255l-13 -66h-355zM915 606
q-13 38 -38 78t-44 69v13h53q20 -16 40 -40t39 -51q31 27 62 50.5t58 40.5h57v-13q-17 -15 -45 -41.5t-54.5 -54.5t-41.5 -51h-86z" />
    <glyph glyph-name="uni01C6" unicode="&#x1c6;" horiz-adv-x="1024" 
d="M193 -10q-64 0 -104.5 46t-40.5 137q0 74 18 140.5t52.5 119t83 82.5t109.5 30q54 0 86.5 -27.5t48.5 -64.5h5q5 34 9.5 65t12.5 67l37 175h87l-161 -760h-72l11 99h-4q-36 -45 -79 -77t-99 -32zM223 63q33 0 67 24.5t63 66.5t46.5 96t17.5 114q0 48 -23.5 78t-76.5 30
q-40 0 -72.5 -25.5t-56.5 -68.5t-37 -97t-13 -110q0 -108 85 -108zM564 0l12 60l333 410h-230l14 66h325l-14 -71l-327 -399h255l-13 -66h-355zM827 606q-13 38 -38 78t-44 69v13h53q20 -16 40 -40t39 -51q31 27 62 50.5t58 40.5h57v-13q-17 -15 -45 -41.5t-54.5 -54.5
t-41.5 -51h-86z" />
    <glyph glyph-name="uni01C7" unicode="&#x1c7;" horiz-adv-x="751" 
d="M41 0l151 714h89l-135 -634h274l-17 -80h-362zM398 -190q-50 0 -76 12l3 77q15 -4 33 -7t38 -3q44 0 78 28t47 92l150 705h89l-151 -715q-22 -101 -76.5 -145t-134.5 -44z" />
    <glyph glyph-name="uni01C8" unicode="&#x1c8;" horiz-adv-x="736" 
d="M41 0l151 714h89l-135 -634h274l-17 -80h-362zM690 625q-20 0 -33.5 12.5t-13.5 34.5q0 26 15.5 45t43.5 19q45 0 45 -45q0 -31 -18 -48.5t-39 -17.5zM414 -240q-37 0 -62 10v74q12 -4 27 -7.5t31 -3.5q61 0 82 98l128 605h87l-130 -613q-16 -75 -52.5 -119t-110.5 -44z
" />
    <glyph glyph-name="uni01C9" unicode="&#x1c9;" horiz-adv-x="516" 
d="M27 0l162 760h88l-162 -760h-88zM470 625q-20 0 -33.5 12.5t-13.5 34.5q0 26 15.5 45t43.5 19q45 0 45 -45q0 -31 -18 -48.5t-39 -17.5zM194 -240q-37 0 -62 10v74q12 -4 27 -7.5t31 -3.5q61 0 82 98l128 605h87l-130 -613q-16 -75 -52.5 -119t-110.5 -44z" />
    <glyph glyph-name="uni01CA" unicode="&#x1ca;" horiz-adv-x="980" 
d="M40 0l151 714h95l219 -590h3q5 36 14.5 91.5t20.5 105.5l84 393h85l-151 -714h-95l-221 592h-3q-2 -21 -7.5 -55t-13 -73t-15.5 -76l-82 -388h-84zM627 -190q-50 0 -76 12l3 77q15 -4 33 -7t38 -3q44 0 78 28t47 92l150 705h89l-151 -715q-22 -101 -76.5 -145t-134.5 -44
z" />
    <glyph glyph-name="uni01CB" unicode="&#x1cb;" horiz-adv-x="965" 
d="M40 0l151 714h95l219 -590h3q5 36 14.5 91.5t20.5 105.5l84 393h85l-151 -714h-95l-221 592h-3q-2 -21 -7.5 -55t-13 -73t-15.5 -76l-82 -388h-84zM919 625q-20 0 -33.5 12.5t-13.5 34.5q0 26 15.5 45t43.5 19q45 0 45 -45q0 -31 -18 -48.5t-39 -17.5zM643 -240
q-37 0 -62 10v74q12 -4 27 -7.5t31 -3.5q61 0 82 98l128 605h87l-130 -613q-16 -75 -52.5 -119t-110.5 -44z" />
    <glyph glyph-name="uni01CC" unicode="&#x1cc;" horiz-adv-x="837" 
d="M24 0l115 539h78l-11 -99h1q19 25 44.5 50t59.5 42t77 17q65 0 101.5 -35.5t36.5 -99.5q0 -23 -3.5 -47t-7.5 -42l-71 -325h-94l72 337q5 23 7.5 38.5t2.5 29.5q0 64 -68 64q-33 0 -71.5 -23t-72 -75t-52.5 -140l-50 -231h-94zM791 625q-20 0 -33.5 12.5t-13.5 34.5
q0 26 15.5 45t43.5 19q45 0 45 -45q0 -31 -18 -48.5t-39 -17.5zM515 -240q-37 0 -62 10v74q12 -4 27 -7.5t31 -3.5q61 0 82 98l128 605h87l-130 -613q-16 -75 -52.5 -119t-110.5 -44z" />
    <glyph glyph-name="uni01CD" unicode="&#x1cd;" horiz-adv-x="562" 
d="M-57 0l388 714h94l88 -714h-88l-27 222h-241l-116 -222h-98zM200 302h189l-16 150q-4 38 -7.5 84t-4.5 81h-3q-16 -38 -37 -81.5t-44 -87.5zM344 784q-13 38 -38 78t-44 69v13h53q20 -16 40 -40t39 -51q31 27 62 50.5t58 40.5h57v-13q-17 -15 -45 -41.5t-54.5 -54.5
t-41.5 -51h-86z" />
    <glyph glyph-name="uni01CE" unicode="&#x1ce;" horiz-adv-x="568" 
d="M193 -10q-64 0 -104.5 46.5t-40.5 136.5q0 75 19.5 142.5t54.5 119t83 81.5t106 30q53 0 86 -28t49 -65h5l32 83h67l-114 -536h-70l13 99h-4q-34 -44 -80 -76.5t-102 -32.5zM222 63q37 0 72.5 27t64.5 73t44 103q8 29 10.5 53.5t2.5 45.5q0 47 -26 77t-70 30
q-39 0 -72 -24.5t-58 -67t-38.5 -96.5t-13.5 -113q0 -54 22 -81t62 -27zM309 606q-13 38 -38 78t-44 69v13h53q20 -16 40 -40t39 -51q31 27 62 50.5t58 40.5h57v-13q-17 -15 -45 -41.5t-54.5 -54.5t-41.5 -51h-86z" />
    <glyph glyph-name="uni01CF" unicode="&#x1cf;" horiz-adv-x="324" 
d="M-20 0l10 49l85 20l122 576l-76 19l10 50h250l-10 -50l-86 -19l-122 -576l77 -20l-10 -49h-250zM225 784q-13 38 -38 78t-44 69v13h53q20 -16 40 -40t39 -51q31 27 62 50.5t58 40.5h57v-13q-17 -15 -45 -41.5t-54.5 -54.5t-41.5 -51h-86z" />
    <glyph glyph-name="uni01D0" unicode="&#x1d0;" horiz-adv-x="258" 
d="M28 0l114 536h88l-114 -536h-88zM154 606q-13 38 -38 78t-44 69v13h53q20 -16 40 -40t39 -51q31 27 62 50.5t58 40.5h57v-13q-17 -15 -45 -41.5t-54.5 -54.5t-41.5 -51h-86z" />
    <glyph glyph-name="uni01D1" unicode="&#x1d1;" horiz-adv-x="721" 
d="M337 -10q-128 0 -196.5 74.5t-68.5 202.5q0 92 24.5 175t71.5 146.5t114 100t151 36.5q122 0 189.5 -75t67.5 -206q0 -93 -22.5 -175t-67 -144.5t-110.5 -98.5t-153 -36zM340 69q60 0 107 30t80 82.5t50.5 120.5t17.5 144q0 95 -45 147.5t-123 52.5q-60 0 -108 -29.5
t-82 -81t-52 -120t-18 -146.5q0 -94 46 -147t127 -53zM424 784q-13 38 -38 78t-44 69v13h53q20 -16 40 -40t39 -51q31 27 62 50.5t58 40.5h57v-13q-17 -15 -45 -41.5t-54.5 -54.5t-41.5 -51h-86z" />
    <glyph glyph-name="uni01D2" unicode="&#x1d2;" horiz-adv-x="563" 
d="M248 -8q-93 0 -146.5 55.5t-53.5 150.5q0 62 17 123t50.5 111t84 80.5t116.5 30.5q94 0 147 -55.5t53 -151.5q0 -61 -17 -122t-50.5 -111t-83.5 -80.5t-117 -30.5zM253 65q48 0 87 33.5t62.5 96.5t23.5 151q0 30 -10.5 58.5t-34.5 47t-64 18.5q-55 0 -95.5 -37.5
t-62.5 -100t-22 -137.5q0 -62 30.5 -96t85.5 -34zM290 606q-13 38 -38 78t-44 69v13h53q20 -16 40 -40t39 -51q31 27 62 50.5t58 40.5h57v-13q-17 -15 -45 -41.5t-54.5 -54.5t-41.5 -51h-86z" />
    <glyph glyph-name="uni01D3" unicode="&#x1d3;" horiz-adv-x="677" 
d="M300 -10q-112 0 -166.5 51.5t-54.5 146.5q0 17 3 42t9 53l92 431h89l-93 -436q-5 -23 -8 -48t-3 -41q0 -56 34.5 -88t102.5 -32q89 0 132.5 46t62.5 135l99 464h89l-100 -471q-16 -78 -50.5 -135t-92.5 -87.5t-145 -30.5zM402 784q-13 38 -38 78t-44 69v13h53
q20 -16 40 -40t39 -51q31 27 62 50.5t58 40.5h57v-13q-17 -15 -45 -41.5t-54.5 -54.5t-41.5 -51h-86z" />
    <glyph glyph-name="uni01D4" unicode="&#x1d4;" horiz-adv-x="579" 
d="M189 -10q-61 0 -97.5 34t-36.5 99q0 23 3.5 43.5t7.5 42.5l70 327h89l-72 -337q-9 -43 -9 -67q0 -32 16.5 -50.5t53.5 -18.5q34 0 73.5 24t73.5 77t53 141l49 231h87l-114 -536h-72l11 99h-5q-19 -24 -44.5 -49.5t-59 -42.5t-77.5 -17zM315 606q-13 38 -38 78t-44 69v13
h53q20 -16 40 -40t39 -51q31 27 62 50.5t58 40.5h57v-13q-17 -15 -45 -41.5t-54.5 -54.5t-41.5 -51h-86z" />
    <glyph glyph-name="uni01D5" unicode="&#x1d5;" horiz-adv-x="677" 
d="M345 943l15 71h269l-15 -71h-269zM364 779q-19 0 -31 11t-12 31q0 23 14 40t39 17q21 0 30.5 -11t9.5 -29q0 -28 -15.5 -43.5t-34.5 -15.5zM543 779q-18 0 -30 11t-12 31q0 23 14 40t39 17q20 0 30 -11t10 -29q0 -28 -16 -43.5t-35 -15.5zM300 -10q-112 0 -166.5 51.5
t-54.5 146.5q0 17 3 42t9 53l92 431h89l-93 -436q-5 -23 -8 -48t-3 -41q0 -56 34.5 -88t102.5 -32q89 0 132.5 46t62.5 135l99 464h89l-100 -471q-16 -78 -50.5 -135t-92.5 -87.5t-145 -30.5z" />
    <glyph glyph-name="uni01D6" unicode="&#x1d6;" horiz-adv-x="579" 
d="M258 765l15 71h269l-15 -71h-269zM277 601q-19 0 -31 11t-12 31q0 23 14 40t39 17q21 0 30.5 -11t9.5 -29q0 -28 -15.5 -43.5t-34.5 -15.5zM456 601q-18 0 -30 11t-12 31q0 23 14 40t39 17q20 0 30 -11t10 -29q0 -28 -16 -43.5t-35 -15.5zM189 -10q-61 0 -97.5 34
t-36.5 99q0 23 3.5 43.5t7.5 42.5l70 327h89l-72 -337q-9 -43 -9 -67q0 -32 16.5 -50.5t53.5 -18.5q34 0 73.5 24t73.5 77t53 141l49 231h87l-114 -536h-72l11 99h-5q-19 -24 -44.5 -49.5t-59 -42.5t-77.5 -17z" />
    <glyph glyph-name="uni01D7" unicode="&#x1d7;" horiz-adv-x="677" 
d="M413 915q26 30 53 65t49 69h100v-10q-14 -18 -39 -42.5t-53.5 -49.5t-54.5 -43h-55v11zM362 779q-19 0 -31 11t-12 31q0 23 14 40t39 17q21 0 30.5 -11t9.5 -29q0 -28 -15.5 -43.5t-34.5 -15.5zM541 779q-18 0 -30 11t-12 31q0 23 14 40t39 17q20 0 30 -11t10 -29
q0 -28 -16 -43.5t-35 -15.5zM300 -10q-112 0 -166.5 51.5t-54.5 146.5q0 17 3 42t9 53l92 431h89l-93 -436q-5 -23 -8 -48t-3 -41q0 -56 34.5 -88t102.5 -32q89 0 132.5 46t62.5 135l99 464h89l-100 -471q-16 -78 -50.5 -135t-92.5 -87.5t-145 -30.5z" />
    <glyph glyph-name="uni01D8" unicode="&#x1d8;" horiz-adv-x="579" 
d="M326 737q26 30 53 65t49 69h100v-10q-14 -17 -39 -42t-53.5 -50t-54.5 -43h-55v11zM275 601q-19 0 -31 11t-12 31q0 23 14 40t39 17q21 0 30.5 -11t9.5 -29q0 -28 -15.5 -43.5t-34.5 -15.5zM454 601q-18 0 -30 11t-12 31q0 23 14 40t39 17q20 0 30 -11t10 -29
q0 -28 -16 -43.5t-35 -15.5zM189 -10q-61 0 -97.5 34t-36.5 99q0 23 3.5 43.5t7.5 42.5l70 327h89l-72 -337q-9 -43 -9 -67q0 -32 16.5 -50.5t53.5 -18.5q34 0 73.5 24t73.5 77t53 141l49 231h87l-114 -536h-72l11 99h-5q-19 -24 -44.5 -49.5t-59 -42.5t-77.5 -17z" />
    <glyph glyph-name="uni01D9" unicode="&#x1d9;" horiz-adv-x="677" 
d="M427 924q-13 38 -38 78t-44 69v13h53q20 -16 40 -40t39 -51q31 27 62 50.5t58 40.5h57v-13q-17 -15 -45 -41.5t-54.5 -54.5t-41.5 -51h-86zM365 779q-19 0 -31 11t-12 31q0 23 14 40t39 17q21 0 30.5 -11t9.5 -29q0 -28 -15.5 -43.5t-34.5 -15.5zM544 779q-18 0 -30 11
t-12 31q0 23 14 40t39 17q20 0 30 -11t10 -29q0 -28 -16 -43.5t-35 -15.5zM300 -10q-112 0 -166.5 51.5t-54.5 146.5q0 17 3 42t9 53l92 431h89l-93 -436q-5 -23 -8 -48t-3 -41q0 -56 34.5 -88t102.5 -32q89 0 132.5 46t62.5 135l99 464h89l-100 -471q-16 -78 -50.5 -135
t-92.5 -87.5t-145 -30.5z" />
    <glyph glyph-name="uni01DA" unicode="&#x1da;" horiz-adv-x="579" 
d="M340 746q-13 38 -38 78t-44 69v13h53q20 -16 40 -40t39 -51q31 27 62 50.5t58 40.5h57v-13q-17 -15 -45 -41.5t-54.5 -54.5t-41.5 -51h-86zM278 601q-19 0 -31 11t-12 31q0 23 14 40t39 17q21 0 30.5 -11t9.5 -29q0 -28 -15.5 -43.5t-34.5 -15.5zM457 601q-18 0 -30 11
t-12 31q0 23 14 40t39 17q20 0 30 -11t10 -29q0 -28 -16 -43.5t-35 -15.5zM189 -10q-61 0 -97.5 34t-36.5 99q0 23 3.5 43.5t7.5 42.5l70 327h89l-72 -337q-9 -43 -9 -67q0 -32 16.5 -50.5t53.5 -18.5q34 0 73.5 24t73.5 77t53 141l49 231h87l-114 -536h-72l11 99h-5
q-19 -24 -44.5 -49.5t-59 -42.5t-77.5 -17z" />
    <glyph glyph-name="uni01DB" unicode="&#x1db;" horiz-adv-x="677" 
d="M454 904q-26 27 -55 65.5t-46 69.5v10h90q13 -37 29 -68t36 -65v-12h-54zM364 779q-19 0 -31 11t-12 31q0 23 14 40t39 17q21 0 30.5 -11t9.5 -29q0 -28 -15.5 -43.5t-34.5 -15.5zM543 779q-18 0 -30 11t-12 31q0 23 14 40t39 17q20 0 30 -11t10 -29q0 -28 -16 -43.5
t-35 -15.5zM300 -10q-112 0 -166.5 51.5t-54.5 146.5q0 17 3 42t9 53l92 431h89l-93 -436q-5 -23 -8 -48t-3 -41q0 -56 34.5 -88t102.5 -32q89 0 132.5 46t62.5 135l99 464h89l-100 -471q-16 -78 -50.5 -135t-92.5 -87.5t-145 -30.5z" />
    <glyph glyph-name="uni01DC" unicode="&#x1dc;" horiz-adv-x="579" 
d="M367 726q-26 27 -55 65.5t-46 69.5v10h90q13 -37 29 -68t36 -65v-12h-54zM277 601q-19 0 -31 11t-12 31q0 23 14 40t39 17q21 0 30.5 -11t9.5 -29q0 -28 -15.5 -43.5t-34.5 -15.5zM456 601q-18 0 -30 11t-12 31q0 23 14 40t39 17q20 0 30 -11t10 -29q0 -28 -16 -43.5
t-35 -15.5zM189 -10q-61 0 -97.5 34t-36.5 99q0 23 3.5 43.5t7.5 42.5l70 327h89l-72 -337q-9 -43 -9 -67q0 -32 16.5 -50.5t53.5 -18.5q34 0 73.5 24t73.5 77t53 141l49 231h87l-114 -536h-72l11 99h-5q-19 -24 -44.5 -49.5t-59 -42.5t-77.5 -17z" />
    <glyph glyph-name="uni01DD" unicode="&#x1dd;" horiz-adv-x="493" 
d="M178 -10q-76 0 -114.5 33.5t-38.5 91.5q0 53 32.5 95.5t101.5 68t179 25.5h17q1 9 1.5 19t0.5 18q0 62 -29.5 97t-91.5 35q-37 0 -71.5 -10.5t-74.5 -30.5v75q38 17 74.5 28t87.5 11q93 0 143.5 -54.5t50.5 -147.5q0 -64 -18.5 -126.5t-53.5 -114t-84.5 -82.5t-111.5 -31
zM183 63q48 0 92.5 44.5t66.5 125.5h-7q-60 0 -111 -10.5t-82 -35t-31 -65.5q0 -25 17.5 -42t54.5 -17z" />
    <glyph glyph-name="uni01DE" unicode="&#x1de;" horiz-adv-x="562" 
d="M287 943l15 71h269l-15 -71h-269zM306 779q-19 0 -31 11t-12 31q0 23 14 40t39 17q21 0 30.5 -11t9.5 -29q0 -28 -15.5 -43.5t-34.5 -15.5zM485 779q-18 0 -30 11t-12 31q0 23 14 40t39 17q20 0 30 -11t10 -29q0 -28 -16 -43.5t-35 -15.5zM-57 0l388 714h94l88 -714h-88
l-27 222h-241l-116 -222h-98zM200 302h189l-16 150q-4 38 -7.5 84t-4.5 81h-3q-16 -38 -37 -81.5t-44 -87.5z" />
    <glyph glyph-name="uni01DF" unicode="&#x1df;" horiz-adv-x="568" 
d="M252 765l15 71h269l-15 -71h-269zM271 601q-19 0 -31 11t-12 31q0 23 14 40t39 17q21 0 30.5 -11t9.5 -29q0 -28 -15.5 -43.5t-34.5 -15.5zM450 601q-18 0 -30 11t-12 31q0 23 14 40t39 17q20 0 30 -11t10 -29q0 -28 -16 -43.5t-35 -15.5zM193 -10q-64 0 -104.5 46.5
t-40.5 136.5q0 75 19.5 142.5t54.5 119t83 81.5t106 30q53 0 86 -28t49 -65h5l32 83h67l-114 -536h-70l13 99h-4q-34 -44 -80 -76.5t-102 -32.5zM222 63q37 0 72.5 27t64.5 73t44 103q8 29 10.5 53.5t2.5 45.5q0 47 -26 77t-70 30q-39 0 -72 -24.5t-58 -67t-38.5 -96.5
t-13.5 -113q0 -54 22 -81t62 -27z" />
    <glyph glyph-name="uni01E0" unicode="&#x1e0;" horiz-adv-x="562" 
d="M285 943l15 71h269l-15 -71h-269zM393 784q-20 0 -34 12.5t-14 34.5q0 26 15.5 45t43.5 19q46 0 46 -45q0 -31 -18 -48.5t-39 -17.5zM-57 0l388 714h94l88 -714h-88l-27 222h-241l-116 -222h-98zM200 302h189l-16 150q-4 38 -7.5 84t-4.5 81h-3q-16 -38 -37 -81.5
t-44 -87.5z" />
    <glyph glyph-name="uni01E1" unicode="&#x1e1;" horiz-adv-x="568" 
d="M249 765l15 71h269l-15 -71h-269zM357 606q-20 0 -34 12.5t-14 34.5q0 26 15.5 45t43.5 19q46 0 46 -45q0 -31 -18 -48.5t-39 -17.5zM193 -10q-64 0 -104.5 46.5t-40.5 136.5q0 75 19.5 142.5t54.5 119t83 81.5t106 30q53 0 86 -28t49 -65h5l32 83h67l-114 -536h-70
l13 99h-4q-34 -44 -80 -76.5t-102 -32.5zM222 63q37 0 72.5 27t64.5 73t44 103q8 29 10.5 53.5t2.5 45.5q0 47 -26 77t-70 30q-39 0 -72 -24.5t-58 -67t-38.5 -96.5t-13.5 -113q0 -54 22 -81t62 -27z" />
    <glyph glyph-name="uni01E2" unicode="&#x1e2;" horiz-adv-x="824" 
d="M-58 0l457 714h465l-16 -79h-274l-48 -223h256l-15 -78h-256l-54 -255h273l-17 -79h-363l47 222h-214l-139 -222h-102zM234 302h179l71 333h-41zM463 784l15 71h269l-15 -71h-269z" />
    <glyph glyph-name="uni01E3" unicode="&#x1e3;" horiz-adv-x="820" 
d="M177 -10q-58 0 -93.5 47t-35.5 135q0 76 19.5 143.5t54 119.5t81 81.5t100.5 29.5q48 0 77 -27.5t45 -65.5h5l33 83h56l-14 -69q26 35 66 57t94 22q53 0 93 -30.5t40 -94.5q0 -52 -32 -95t-101 -68.5t-179 -25.5h-20q-1 -9 -1.5 -19t-0.5 -18q0 -61 30 -96.5t93 -35.5
q37 0 71.5 12t73.5 29v-77q-40 -18 -78.5 -27.5t-82.5 -9.5q-52 0 -92 19t-60 57l-14 -66h-59l12 99h-4q-40 -49 -80.5 -79t-96.5 -30zM488 303q60 0 111 10.5t81.5 34.5t30.5 64q0 32 -18.5 46.5t-44.5 14.5q-55 0 -100.5 -44.5t-68.5 -125.5h9zM206 63q36 0 70.5 27
t62.5 73t44 104q8 28 10.5 52.5t2.5 45.5q0 47 -21.5 77t-59.5 30q-37 0 -69 -24.5t-56.5 -66.5t-38 -96t-13.5 -113q0 -55 18 -82t50 -27zM343 606l15 71h269l-15 -71h-269z" />
    <glyph glyph-name="uni01E4" unicode="&#x1e4;" horiz-adv-x="678" 
d="M343 -10q-127 0 -199 71t-72 198q0 98 27.5 182.5t79 148t122 99t156.5 35.5q65 0 114 -11t93 -31l-34 -78q-37 17 -80 29t-94 12q-82 0 -147.5 -49t-103.5 -134.5t-38 -196.5q0 -55 19.5 -99.5t60.5 -70.5t105 -26q38 0 69.5 5.5t53.5 12.5l15 69h-134l15 71h134l16 71
h-140l17 78h229l-33 -149h63l-15 -71h-63l-28 -129q-45 -16 -95 -26.5t-113 -10.5z" />
    <glyph glyph-name="uni01E5" unicode="&#x1e5;" horiz-adv-x="505" 
d="M186 -240q-49 0 -90.5 9.5t-70.5 24.5v81q26 -16 70.5 -29t87.5 -13q50 0 79.5 11.5t47.5 38.5h-143l15 71h157l11 47q4 16 11.5 48t15.5 60h-4q-34 -44 -77.5 -76.5t-99.5 -32.5q-65 0 -105.5 44t-40.5 134q0 73 18 139t51.5 117.5t82 81.5t109.5 30q54 0 87 -28t49 -65
h4l33 83h67l-126 -582h65l-14 -71h-76q-31 -65 -85 -94t-129 -29zM225 73q34 0 67.5 23.5t61.5 64.5t45 93t17 110q0 48 -22.5 78t-75.5 30q-40 0 -73 -25t-56.5 -67t-36 -95t-12.5 -109q0 -54 22 -78.5t63 -24.5z" />
    <glyph glyph-name="Gcaron" unicode="&#x1e6;" horiz-adv-x="678" 
d="M343 -10q-127 0 -199 71t-72 198q0 98 27.5 182.5t79 148t122 99t156.5 35.5q65 0 114 -11t93 -31l-34 -78q-37 17 -80 29t-94 12q-82 0 -147.5 -49t-103.5 -134.5t-38 -196.5q0 -55 19.5 -99.5t60.5 -70.5t105 -26q38 0 69.5 5.5t53.5 12.5l46 211h-140l17 78h229
l-76 -349q-45 -16 -95 -26.5t-113 -10.5zM432 784q-13 38 -38 78t-44 69v13h53q20 -16 40 -40t39 -51q31 27 62 50.5t58 40.5h57v-13q-17 -15 -45 -41.5t-54.5 -54.5t-41.5 -51h-86z" />
    <glyph glyph-name="gcaron" unicode="&#x1e7;" horiz-adv-x="579" 
d="M186 -240q-49 0 -90.5 9.5t-70.5 24.5v81q26 -16 70.5 -29t87.5 -13q62 0 102 30t56 100l9 38q5 23 12.5 51t12.5 47h-4q-34 -44 -77.5 -76.5t-99.5 -32.5q-65 0 -105.5 46.5t-40.5 136.5q0 73 18 140t52.5 119.5t83 83t109.5 30.5q54 0 87 -28t49 -65h4l33 83h67
l-122 -567q-24 -113 -85.5 -161t-157.5 -48zM223 63q34 0 68 25t62.5 67.5t45.5 96.5t17 112q0 48 -22.5 78t-75.5 30q-40 0 -73 -25.5t-57 -68.5t-37 -97t-13 -110q0 -108 85 -108zM305 606q-13 38 -38 78t-44 69v13h53q20 -16 40 -40t39 -51q31 27 62 50.5t58 40.5h57v-13
q-17 -15 -45 -41.5t-54.5 -54.5t-41.5 -51h-86z" />
    <glyph glyph-name="uni01E8" unicode="&#x1e8;" horiz-adv-x="562" 
d="M41 0l151 714h89l-74 -347l62 66l274 281h108l-310 -314l169 -400h-98l-139 346l-83 -61l-60 -285h-89zM370 784q-13 38 -38 78t-44 69v13h53q20 -16 40 -40t39 -51q31 27 62 50.5t58 40.5h57v-13q-17 -15 -45 -41.5t-54.5 -54.5t-41.5 -51h-86z" />
    <glyph glyph-name="uni01E9" unicode="&#x1e9;" horiz-adv-x="495" 
d="M27 0l161 760h89l-65 -302q-17 -80 -29.5 -123.5t-17.5 -57.5h2l254 259h104l-230 -230l143 -306h-97l-113 251l-72 -57l-40 -194h-89zM200 830q-13 38 -38 78t-44 69v13h53q20 -16 40 -40t39 -51q31 27 62 50.5t58 40.5h57v-13q-17 -15 -45 -41.5t-54.5 -54.5t-41.5 -51
h-86z" />
    <glyph glyph-name="uni01EA" unicode="&#x1ea;" horiz-adv-x="721" 
d="M337 -10q-128 0 -196.5 74.5t-68.5 202.5q0 92 24.5 175t71.5 146.5t114 100t151 36.5q122 0 189.5 -75t67.5 -206q0 -93 -22.5 -175t-67 -144.5t-110.5 -98.5t-153 -36zM340 69q60 0 107 30t80 82.5t50.5 120.5t17.5 144q0 95 -45 147.5t-123 52.5q-60 0 -108 -29.5
t-82 -81t-52 -120t-18 -146.5q0 -94 46 -147t127 -53zM303 -217q-38 0 -63.5 19.5t-25.5 60.5q0 47 29.5 78t74.5 59h61q-19 -15 -41 -34.5t-37 -42t-15 -49.5q0 -33 33 -33q11 0 21 1.5t19 2.5v-55q-13 -4 -27.5 -5.5t-28.5 -1.5z" />
    <glyph glyph-name="uni01EB" unicode="&#x1eb;" horiz-adv-x="563" 
d="M248 -8q-93 0 -146.5 55.5t-53.5 150.5q0 62 17 123t50.5 111t84 80.5t116.5 30.5q94 0 147 -55.5t53 -151.5q0 -61 -17 -122t-50.5 -111t-83.5 -80.5t-117 -30.5zM253 65q48 0 87 33.5t62.5 96.5t23.5 151q0 30 -10.5 58.5t-34.5 47t-64 18.5q-55 0 -95.5 -37.5
t-62.5 -100t-22 -137.5q0 -62 30.5 -96t85.5 -34zM212 -217q-38 0 -63.5 19.5t-25.5 60.5q0 47 29.5 78t74.5 59h61q-19 -15 -41 -34.5t-37 -42t-15 -49.5q0 -33 33 -33q11 0 21 1.5t19 2.5v-55q-13 -4 -27.5 -5.5t-28.5 -1.5z" />
    <glyph glyph-name="uni01EC" unicode="&#x1ec;" horiz-adv-x="721" 
d="M337 -10q-128 0 -196.5 74.5t-68.5 202.5q0 92 24.5 175t71.5 146.5t114 100t151 36.5q122 0 189.5 -75t67.5 -206q0 -93 -22.5 -175t-67 -144.5t-110.5 -98.5t-153 -36zM340 69q60 0 107 30t80 82.5t50.5 120.5t17.5 144q0 95 -45 147.5t-123 52.5q-60 0 -108 -29.5
t-82 -81t-52 -120t-18 -146.5q0 -94 46 -147t127 -53zM332 784l15 71h269l-15 -71h-269zM303 -217q-38 0 -63.5 19.5t-25.5 60.5q0 47 29.5 78t74.5 59h61q-19 -15 -41 -34.5t-37 -42t-15 -49.5q0 -33 33 -33q11 0 21 1.5t19 2.5v-55q-13 -4 -27.5 -5.5t-28.5 -1.5z" />
    <glyph glyph-name="uni01ED" unicode="&#x1ed;" horiz-adv-x="563" 
d="M248 -8q-93 0 -146.5 55.5t-53.5 150.5q0 62 17 123t50.5 111t84 80.5t116.5 30.5q94 0 147 -55.5t53 -151.5q0 -61 -17 -122t-50.5 -111t-83.5 -80.5t-117 -30.5zM253 65q48 0 87 33.5t62.5 96.5t23.5 151q0 30 -10.5 58.5t-34.5 47t-64 18.5q-55 0 -95.5 -37.5
t-62.5 -100t-22 -137.5q0 -62 30.5 -96t85.5 -34zM198 606l15 71h269l-15 -71h-269zM212 -217q-38 0 -63.5 19.5t-25.5 60.5q0 47 29.5 78t74.5 59h61q-19 -15 -41 -34.5t-37 -42t-15 -49.5q0 -33 33 -33q11 0 21 1.5t19 2.5v-55q-13 -4 -27.5 -5.5t-28.5 -1.5z" />
    <glyph glyph-name="uni01EE" unicode="&#x1ee;" horiz-adv-x="529" 
d="M178 -10q-42 0 -89 10.5t-82 29.5v84q38 -22 84 -36t92 -14q70 0 112 23t60.5 59t18.5 76q0 59 -37.5 85t-101.5 26h-78l14 70l245 231h-279l17 80h392l-15 -71l-259 -242q85 -2 140.5 -45t55.5 -131q0 -65 -31.5 -118.5t-96 -85t-162.5 -31.5zM309 771q-13 38 -38 78
t-44 69v13h53q20 -16 40 -40t39 -51q31 27 62 50.5t58 40.5h57v-13q-17 -15 -45 -41.5t-54.5 -54.5t-41.5 -51h-86z" />
    <glyph glyph-name="uni01EF" unicode="&#x1ef;" horiz-adv-x="464" 
d="M95 -240q-55 0 -92.5 9t-68.5 25v81q26 -16 67.5 -29.5t95.5 -13.5q63 0 105 25t62.5 68t20.5 96q0 72 -43.5 105t-119.5 33h-37l13 60l234 243h-261l16 74h363l-13 -64l-242 -250q50 -4 90 -27.5t64 -65.5t24 -104q0 -76 -33 -136t-95 -94.5t-150 -34.5zM226 606
q-13 38 -38 78t-44 69v13h53q20 -16 40 -40t39 -51q31 27 62 50.5t58 40.5h57v-13q-17 -15 -45 -41.5t-54.5 -54.5t-41.5 -51h-86z" />
    <glyph glyph-name="uni01F0" unicode="&#x1f0;" horiz-adv-x="258" 
d="M-64 -240q-37 0 -62 10v74q12 -4 27 -7.5t31 -3.5q61 0 82 98l128 605h87l-130 -613q-16 -75 -52.5 -119t-110.5 -44zM154 606q-13 38 -38 78t-44 69v13h53q20 -16 40 -40t39 -51q31 27 62 50.5t58 40.5h57v-13q-17 -15 -45 -41.5t-54.5 -54.5t-41.5 -51h-86z" />
    <glyph glyph-name="uni01F1" unicode="&#x1f1;" horiz-adv-x="1198" 
d="M41 0l151 714h169q129 0 202 -70t73 -215q0 -124 -48.5 -221t-142 -152.5t-228.5 -55.5h-176zM222 77q104 0 175 47t108 127t37 179q0 110 -52.5 158.5t-139.5 48.5h-85l-119 -560h76zM657 0l14 70l445 564h-315l17 80h422l-13 -71l-445 -563h335l-16 -80h-444z" />
    <glyph glyph-name="uni01F2" unicode="&#x1f2;" horiz-adv-x="1112" 
d="M41 0l151 714h169q129 0 202 -70t73 -215q0 -124 -48.5 -221t-142 -152.5t-228.5 -55.5h-176zM222 77q104 0 175 47t108 127t37 179q0 110 -52.5 158.5t-139.5 48.5h-85l-119 -560h76zM652 0l12 60l333 410h-230l14 66h325l-14 -71l-327 -399h255l-13 -66h-355z" />
    <glyph glyph-name="uni01F3" unicode="&#x1f3;" horiz-adv-x="1024" 
d="M193 -10q-64 0 -104.5 46t-40.5 137q0 74 18 140.5t52.5 119t83 82.5t109.5 30q54 0 86.5 -27.5t48.5 -64.5h5q5 34 9.5 65t12.5 67l37 175h87l-161 -760h-72l11 99h-4q-36 -45 -79 -77t-99 -32zM223 63q33 0 67 24.5t63 66.5t46.5 96t17.5 114q0 48 -23.5 78t-76.5 30
q-40 0 -72.5 -25.5t-56.5 -68.5t-37 -97t-13 -110q0 -108 85 -108zM564 0l12 60l333 410h-230l14 66h325l-14 -71l-327 -399h255l-13 -66h-355z" />
    <glyph glyph-name="uni01F4" unicode="&#x1f4;" horiz-adv-x="678" 
d="M343 -10q-127 0 -199 71t-72 198q0 98 27.5 182.5t79 148t122 99t156.5 35.5q65 0 114 -11t93 -31l-34 -78q-37 17 -80 29t-94 12q-82 0 -147.5 -49t-103.5 -134.5t-38 -196.5q0 -55 19.5 -99.5t60.5 -70.5t105 -26q38 0 69.5 5.5t53.5 12.5l46 211h-140l17 78h229
l-76 -349q-45 -16 -95 -26.5t-113 -10.5zM426 797q18 19 38.5 45t40 53t33.5 49h100v-10q-14 -17 -41.5 -46t-58.5 -57.5t-57 -46.5h-55v13z" />
    <glyph glyph-name="uni01F5" unicode="&#x1f5;" horiz-adv-x="579" 
d="M186 -240q-49 0 -90.5 9.5t-70.5 24.5v81q26 -16 70.5 -29t87.5 -13q62 0 102 30t56 100l9 38q5 23 12.5 51t12.5 47h-4q-34 -44 -77.5 -76.5t-99.5 -32.5q-65 0 -105.5 46.5t-40.5 136.5q0 73 18 140t52.5 119.5t83 83t109.5 30.5q54 0 87 -28t49 -65h4l33 83h67
l-122 -567q-24 -113 -85.5 -161t-157.5 -48zM223 63q34 0 68 25t62.5 67.5t45.5 96.5t17 112q0 48 -22.5 78t-75.5 30q-40 0 -73 -25.5t-57 -68.5t-37 -97t-13 -110q0 -108 85 -108zM299 619q18 19 38.5 45t40 53t33.5 49h100v-10q-14 -17 -41.5 -46t-58.5 -57.5t-57 -46.5
h-55v13z" />
    <glyph glyph-name="uni01F6" unicode="&#x1f6;" horiz-adv-x="898" 
d="M597 -10q-76 0 -116 38.5t-40 105.5q0 25 7 55l30 144h-278l-70 -333h-89l151 714h89l-64 -302h278l64 302h88l-110 -519q-6 -27 -6 -48q0 -41 17.5 -59.5t53.5 -18.5q46 0 70.5 34t40.5 112l69 321h89l-69 -327q-17 -79 -41.5 -127.5t-63.5 -70t-100 -21.5z" />
    <glyph glyph-name="uni01F7" unicode="&#x1f7;" horiz-adv-x="631" 
d="M-11 -240l203 955h72l-14 -106h5q19 32 44 58.5t62.5 42t92.5 15.5q52 0 91.5 -24.5t62.5 -68t23 -102.5q0 -132 -64 -234t-178 -177.5t-265 -128.5l-49 -230h-86zM143 77q117 44 206 107.5t139 147t50 187.5q0 63 -30.5 95.5t-85.5 32.5q-80 0 -133.5 -67.5
t-78.5 -186.5z" />
    <glyph glyph-name="uni01F8" unicode="&#x1f8;" horiz-adv-x="707" 
d="M40 0l151 714h95l219 -590h3q5 36 14.5 91.5t20.5 105.5l84 393h85l-151 -714h-95l-221 592h-3q-2 -21 -7.5 -55t-13 -73t-15.5 -76l-82 -388h-84zM472 784q-19 19 -40.5 46t-40.5 55t-29 49v10h94q11 -37 30.5 -75.5t39.5 -72.5v-12h-54z" />
    <glyph glyph-name="uni01F9" unicode="&#x1f9;" horiz-adv-x="579" 
d="M24 0l115 539h78l-11 -99h1q19 25 44.5 50t59.5 42t77 17q65 0 101.5 -35.5t36.5 -99.5q0 -23 -3.5 -47t-7.5 -42l-71 -325h-94l72 337q5 23 7.5 38.5t2.5 29.5q0 64 -68 64q-33 0 -71.5 -23t-72 -75t-52.5 -140l-50 -231h-94zM367 606q-19 19 -40.5 46t-40.5 55t-29 49
v10h94q11 -37 30.5 -75.5t39.5 -72.5v-12h-54z" />
    <glyph glyph-name="Aringacute" unicode="&#x1fa;" horiz-adv-x="562" 
d="M337 839q26 23 57 57.5t53 61.5h110v-9q-13 -13 -41 -35.5t-59.5 -45.5t-57.5 -39h-62v10zM284 631q-21 26 -21 68q0 50 32 77.5t76 27.5q48 0 79 -27.5t31 -76.5q0 -29 -12 -51.5t-32 -36.5l76 -612h-87l-26 222h-242l-117 -222h-98zM371 644q25 0 40.5 15t15.5 40
q0 26 -15.5 41t-40.5 15q-23 0 -39 -15t-16 -41q0 -25 14.5 -40t40.5 -15zM201 302h189l-16 141q-4 38 -7.5 75t-5.5 69h-13q-16 -32 -33.5 -68.5t-38.5 -75.5z" />
    <glyph glyph-name="aringacute" unicode="&#x1fb;" horiz-adv-x="568" 
d="M323 839q26 24 57 58t53 61h110v-9q-13 -13 -41 -35.5t-59.5 -45t-58.5 -38.5h-61v9zM354 585q-49 0 -79 27.5t-30 76.5q0 50 32 77.5t77 27.5q47 0 77.5 -27t30.5 -77t-30.5 -77.5t-77.5 -27.5zM354 634q23 0 39 15t16 40q0 26 -16 40.5t-39 14.5q-25 0 -40 -14.5
t-15 -40.5q0 -25 13.5 -40t41.5 -15zM193 -10q-64 0 -104.5 46.5t-40.5 136.5q0 75 19.5 142.5t54.5 119t83 81.5t106 30q53 0 86 -28t49 -65h5l32 83h67l-114 -536h-70l13 99h-4q-34 -44 -80 -76.5t-102 -32.5zM222 63q37 0 72.5 27t64 73t44.5 103q8 29 10.5 53.5
t2.5 45.5q0 47 -26 77t-70 30q-39 0 -72 -24.5t-58 -67t-38.5 -96.5t-13.5 -113q0 -54 22 -81t62 -27z" />
    <glyph glyph-name="AEacute" unicode="&#x1fc;" horiz-adv-x="824" 
d="M-58 0l457 714h465l-16 -79h-274l-48 -223h256l-15 -78h-256l-54 -255h273l-17 -79h-363l47 222h-214l-139 -222h-102zM234 302h179l71 333h-41zM469 797q18 19 38.5 45t40 53t33.5 49h100v-10q-14 -17 -41.5 -46t-58.5 -57.5t-57 -46.5h-55v13z" />
    <glyph glyph-name="aeacute" unicode="&#x1fd;" horiz-adv-x="820" 
d="M177 -10q-58 0 -93.5 47t-35.5 135q0 76 19.5 143.5t54 119.5t81 81.5t100.5 29.5q48 0 77 -27.5t45 -65.5h5l33 83h56l-14 -69q26 35 66 57t94 22q53 0 93 -30.5t40 -94.5q0 -52 -32 -95t-101 -68.5t-179 -25.5h-20q-1 -9 -1.5 -19t-0.5 -18q0 -61 30 -96.5t93 -35.5
q37 0 71.5 12t73.5 29v-77q-40 -18 -78.5 -27.5t-82.5 -9.5q-52 0 -92 19t-60 57l-14 -66h-59l12 99h-4q-40 -49 -80.5 -79t-96.5 -30zM488 303q60 0 111 10.5t81.5 34.5t30.5 64q0 32 -18.5 46.5t-44.5 14.5q-55 0 -100.5 -44.5t-68.5 -125.5h9zM206 63q36 0 70.5 27
t62.5 73t44 104q8 28 10.5 52.5t2.5 45.5q0 47 -21.5 77t-59.5 30q-37 0 -69 -24.5t-56.5 -66.5t-38 -96t-13.5 -113q0 -55 18 -82t50 -27zM429 619q18 19 38.5 45t40 53t33.5 49h100v-10q-14 -17 -41.5 -46t-58.5 -57.5t-57 -46.5h-55v13z" />
    <glyph glyph-name="Oslashacute" unicode="&#x1fe;" horiz-adv-x="721" 
d="M114 -41l-57 46l66 82q-26 35 -38.5 81t-12.5 99q0 92 24.5 175t71.5 146.5t114 100t151 36.5q93 0 160 -52l63 79l58 -46l-72 -88q23 -31 35.5 -76.5t12.5 -97.5q0 -93 -22.5 -175t-67 -144.5t-110.5 -98.5t-153 -36q-96 0 -161 46zM538 606q-21 20 -48.5 30.5
t-62.5 10.5q-60 0 -108 -29.5t-82.5 -81.5t-52.5 -120.5t-18 -146.5q0 -61 19 -105zM340 69q60 0 107.5 30t80.5 82.5t50.5 120.5t17.5 144q0 27 -4 51t-11 43l-352 -437q20 -16 48.5 -25t62.5 -9zM425 784q18 19 38.5 45t40 53t33.5 49h100v-10q-14 -17 -41.5 -46
t-58.5 -57.5t-57 -46.5h-55v13z" />
    <glyph glyph-name="oslashacute" unicode="&#x1ff;" horiz-adv-x="563" 
d="M82 -38l-53 41l54 67q-34 50 -34 128q0 62 17 123t50.5 111t83.5 80.5t116 30.5q73 0 122 -32l49 61l53 -40l-56 -62q16 -24 23 -58t7 -68q0 -61 -16.5 -123.5t-49.5 -114t-83 -83t-116 -31.5q-69 0 -119 31zM388 449q-11 9 -28 15.5t-43 6.5q-55 0 -96.5 -37.5t-64 -98
t-22.5 -131.5q0 -42 8 -61zM253 63q48 0 88 33t64 94t24 145q0 17 -1.5 31t-4.5 22l-244 -304q14 -10 33 -15.5t41 -5.5zM318 619q18 19 38.5 45t40 53t33.5 49h100v-10q-14 -17 -41.5 -46t-58.5 -57.5t-57 -46.5h-55v13z" />
    <glyph glyph-name="uni0200" unicode="&#x200;" horiz-adv-x="562" 
d="M-57 0l388 714h94l88 -714h-88l-27 222h-241l-116 -222h-98zM200 302h189l-16 150q-4 38 -7.5 84t-4.5 81h-3q-16 -38 -37 -81.5t-44 -87.5zM434 784q-19 19 -40.5 46t-40 55t-29.5 49v10h96q11 -37 30 -75.5t39 -72.5v-12h-55zM263 784q-19 19 -40.5 46t-40 55t-29.5 49
v10h95q11 -37 30 -75.5t41 -72.5v-12h-56z" />
    <glyph glyph-name="uni0201" unicode="&#x201;" horiz-adv-x="568" 
d="M193 -10q-64 0 -104.5 46.5t-40.5 136.5q0 75 19.5 142.5t54.5 119t83 81.5t106 30q53 0 86 -28t49 -65h5l32 83h67l-114 -536h-70l13 99h-4q-34 -44 -80 -76.5t-102 -32.5zM222 63q37 0 72.5 27t64.5 73t44 103q8 29 10.5 53.5t2.5 45.5q0 47 -26 77t-70 30
q-39 0 -72 -24.5t-58 -67t-38.5 -96.5t-13.5 -113q0 -54 22 -81t62 -27zM399 606q-19 19 -40.5 46t-40 55t-29.5 49v10h96q11 -37 30 -75.5t39 -72.5v-12h-55zM228 606q-19 19 -40.5 46t-40 55t-29.5 49v10h95q11 -37 30 -75.5t41 -72.5v-12h-56z" />
    <glyph glyph-name="uni0202" unicode="&#x202;" horiz-adv-x="562" 
d="M-57 0l388 714h94l88 -714h-88l-27 222h-241l-116 -222h-98zM200 302h189l-16 150q-4 38 -7.5 84t-4.5 81h-3q-16 -38 -37 -81.5t-44 -87.5zM251 784q17 72 58.5 103t104.5 31q54 0 89 -28.5t35 -83.5v-10.5t-1 -11.5h-52q0 29 -18 45t-62 16q-46 0 -68.5 -16.5
t-30.5 -44.5h-55z" />
    <glyph glyph-name="uni0203" unicode="&#x203;" horiz-adv-x="568" 
d="M193 -10q-64 0 -104.5 46.5t-40.5 136.5q0 75 19.5 142.5t54.5 119t83 81.5t106 30q53 0 86 -28t49 -65h5l32 83h67l-114 -536h-70l13 99h-4q-34 -44 -80 -76.5t-102 -32.5zM222 63q37 0 72.5 27t64.5 73t44 103q8 29 10.5 53.5t2.5 45.5q0 47 -26 77t-70 30
q-39 0 -72 -24.5t-58 -67t-38.5 -96.5t-13.5 -113q0 -54 22 -81t62 -27zM216 606q17 72 58.5 103t104.5 31q54 0 89 -28.5t35 -83.5v-10.5t-1 -11.5h-52q0 29 -18 45t-62 16q-46 0 -68.5 -16.5t-30.5 -44.5h-55z" />
    <glyph glyph-name="uni0204" unicode="&#x204;" horiz-adv-x="514" 
d="M41 0l151 714h362l-17 -79h-273l-47 -223h255l-15 -78h-256l-55 -255h274l-17 -79h-362zM428 784q-19 19 -40.5 46t-40 55t-29.5 49v10h96q11 -37 30 -75.5t39 -72.5v-12h-55zM257 784q-19 19 -40.5 46t-40 55t-29.5 49v10h95q11 -37 30 -75.5t41 -72.5v-12h-56z" />
    <glyph glyph-name="uni0205" unicode="&#x205;" horiz-adv-x="499" 
d="M242 -10q-93 0 -143.5 54.5t-50.5 147.5q0 64 18.5 126.5t53.5 114t84.5 82.5t111.5 31q76 0 114.5 -33t38.5 -92q0 -52 -32.5 -95t-101.5 -68.5t-179 -25.5h-17q-1 -9 -1.5 -19t-0.5 -18q0 -61 30 -96.5t91 -35.5q38 0 72 11t74 30v-75q-38 -17 -74.5 -28t-87.5 -11z
M159 303q60 0 111 10.5t82 35t31 65.5q0 26 -17.5 42.5t-54.5 16.5q-48 0 -92.5 -44.5t-66.5 -125.5h7zM372 606q-19 19 -40.5 46t-40 55t-29.5 49v10h96q11 -37 30 -75.5t39 -72.5v-12h-55zM201 606q-19 19 -40.5 46t-40 55t-29.5 49v10h95q11 -37 30 -75.5t41 -72.5v-12
h-56z" />
    <glyph glyph-name="uni0206" unicode="&#x206;" horiz-adv-x="514" 
d="M41 0l151 714h362l-17 -79h-273l-47 -223h255l-15 -78h-256l-55 -255h274l-17 -79h-362zM245 784q17 72 58.5 103t104.5 31q54 0 89 -28.5t35 -83.5v-10.5t-1 -11.5h-52q0 29 -18 45t-62 16q-46 0 -68.5 -16.5t-30.5 -44.5h-55z" />
    <glyph glyph-name="uni0207" unicode="&#x207;" horiz-adv-x="499" 
d="M242 -10q-93 0 -143.5 54.5t-50.5 147.5q0 64 18.5 126.5t53.5 114t84.5 82.5t111.5 31q76 0 114.5 -33t38.5 -92q0 -52 -32.5 -95t-101.5 -68.5t-179 -25.5h-17q-1 -9 -1.5 -19t-0.5 -18q0 -61 30 -96.5t91 -35.5q38 0 72 11t74 30v-75q-38 -17 -74.5 -28t-87.5 -11z
M159 303q60 0 111 10.5t82 35t31 65.5q0 26 -17.5 42.5t-54.5 16.5q-48 0 -92.5 -44.5t-66.5 -125.5h7zM179 606q17 72 58.5 103t104.5 31q54 0 89 -28.5t35 -83.5v-10.5t-1 -11.5h-52q0 29 -18 45t-62 16q-46 0 -68.5 -16.5t-30.5 -44.5h-55z" />
    <glyph glyph-name="uni0208" unicode="&#x208;" horiz-adv-x="324" 
d="M-20 0l10 49l85 20l122 576l-76 19l10 50h250l-10 -50l-86 -19l-122 -576l77 -20l-10 -49h-250zM315 784q-19 19 -40.5 46t-40 55t-29.5 49v10h96q11 -37 30 -75.5t39 -72.5v-12h-55zM144 784q-19 19 -40.5 46t-40 55t-29.5 49v10h95q11 -37 30 -75.5t41 -72.5v-12h-56z
" />
    <glyph glyph-name="uni0209" unicode="&#x209;" horiz-adv-x="258" 
d="M28 0l114 536h88l-114 -536h-88zM244 606q-19 19 -40.5 46t-40 55t-29.5 49v10h96q11 -37 30 -75.5t39 -72.5v-12h-55zM73 606q-19 19 -40.5 46t-40 55t-29.5 49v10h95q11 -37 30 -75.5t41 -72.5v-12h-56z" />
    <glyph glyph-name="uni020A" unicode="&#x20a;" horiz-adv-x="324" 
d="M-20 0l10 49l85 20l122 576l-76 19l10 50h250l-10 -50l-86 -19l-122 -576l77 -20l-10 -49h-250zM132 784q17 72 58.5 103t104.5 31q54 0 89 -28.5t35 -83.5v-10.5t-1 -11.5h-52q0 29 -18 45t-62 16q-46 0 -68.5 -16.5t-30.5 -44.5h-55z" />
    <glyph glyph-name="uni020B" unicode="&#x20b;" horiz-adv-x="258" 
d="M28 0l114 536h88l-114 -536h-88zM61 606q17 72 58.5 103t104.5 31q54 0 89 -28.5t35 -83.5v-10.5t-1 -11.5h-52q0 29 -18 45t-62 16q-46 0 -68.5 -16.5t-30.5 -44.5h-55z" />
    <glyph glyph-name="uni020C" unicode="&#x20c;" horiz-adv-x="721" 
d="M337 -10q-128 0 -196.5 74.5t-68.5 202.5q0 92 24.5 175t71.5 146.5t114 100t151 36.5q122 0 189.5 -75t67.5 -206q0 -93 -22.5 -175t-67 -144.5t-110.5 -98.5t-153 -36zM340 69q60 0 107 30t80 82.5t50.5 120.5t17.5 144q0 95 -45 147.5t-123 52.5q-60 0 -108 -29.5
t-82 -81t-52 -120t-18 -146.5q0 -94 46 -147t127 -53zM514 784q-19 19 -40.5 46t-40 55t-29.5 49v10h96q11 -37 30 -75.5t39 -72.5v-12h-55zM343 784q-19 19 -40.5 46t-40 55t-29.5 49v10h95q11 -37 30 -75.5t41 -72.5v-12h-56z" />
    <glyph glyph-name="uni020D" unicode="&#x20d;" horiz-adv-x="563" 
d="M248 -8q-93 0 -146.5 55.5t-53.5 150.5q0 62 17 123t50.5 111t84 80.5t116.5 30.5q94 0 147 -55.5t53 -151.5q0 -61 -17 -122t-50.5 -111t-83.5 -80.5t-117 -30.5zM253 65q48 0 87 33.5t62.5 96.5t23.5 151q0 30 -10.5 58.5t-34.5 47t-64 18.5q-55 0 -95.5 -37.5
t-62.5 -100t-22 -137.5q0 -62 30.5 -96t85.5 -34zM380 606q-19 19 -40.5 46t-40 55t-29.5 49v10h96q11 -37 30 -75.5t39 -72.5v-12h-55zM209 606q-19 19 -40.5 46t-40 55t-29.5 49v10h95q11 -37 30 -75.5t41 -72.5v-12h-56z" />
    <glyph glyph-name="uni020E" unicode="&#x20e;" horiz-adv-x="721" 
d="M337 -10q-128 0 -196.5 74.5t-68.5 202.5q0 92 24.5 175t71.5 146.5t114 100t151 36.5q122 0 189.5 -75t67.5 -206q0 -93 -22.5 -175t-67 -144.5t-110.5 -98.5t-153 -36zM340 69q60 0 107 30t80 82.5t50.5 120.5t17.5 144q0 95 -45 147.5t-123 52.5q-60 0 -108 -29.5
t-82 -81t-52 -120t-18 -146.5q0 -94 46 -147t127 -53zM331 784q17 72 58.5 103t104.5 31q54 0 89 -28.5t35 -83.5v-10.5t-1 -11.5h-52q0 29 -18 45t-62 16q-46 0 -68.5 -16.5t-30.5 -44.5h-55z" />
    <glyph glyph-name="uni020F" unicode="&#x20f;" horiz-adv-x="563" 
d="M248 -8q-93 0 -146.5 55.5t-53.5 150.5q0 62 17 123t50.5 111t84 80.5t116.5 30.5q94 0 147 -55.5t53 -151.5q0 -61 -17 -122t-50.5 -111t-83.5 -80.5t-117 -30.5zM253 65q48 0 87 33.5t62.5 96.5t23.5 151q0 30 -10.5 58.5t-34.5 47t-64 18.5q-55 0 -95.5 -37.5
t-62.5 -100t-22 -137.5q0 -62 30.5 -96t85.5 -34zM197 606q17 72 58.5 103t104.5 31q54 0 89 -28.5t35 -83.5v-10.5t-1 -11.5h-52q0 29 -18 45t-62 16q-46 0 -68.5 -16.5t-30.5 -44.5h-55z" />
    <glyph glyph-name="uni0210" unicode="&#x210;" horiz-adv-x="573" 
d="M41 0l151 714h157q220 0 220 -181q0 -77 -40.5 -134t-137.5 -84l118 -315h-98l-102 295h-117l-62 -295h-89zM286 371q100 0 145.5 43.5t45.5 112.5q0 61 -34 85t-102 24h-76l-57 -265h78zM440 784q-19 19 -40.5 46t-40 55t-29.5 49v10h96q11 -37 30 -75.5t39 -72.5v-12
h-55zM269 784q-19 19 -40.5 46t-40 55t-29.5 49v10h95q11 -37 30 -75.5t41 -72.5v-12h-56z" />
    <glyph glyph-name="uni0211" unicode="&#x211;" horiz-adv-x="398" 
d="M28 0l114 536h72l-11 -99h5q21 28 44 52.5t52 40.5t67 16q14 0 29.5 -1.5t28.5 -5.5l-19 -79q-27 6 -51 6q-50 0 -89 -33t-65 -84t-37 -104l-52 -245h-88zM346 606q-19 19 -40.5 46t-40 55t-29.5 49v10h96q11 -37 30 -75.5t39 -72.5v-12h-55zM175 606q-19 19 -40.5 46
t-40 55t-29.5 49v10h95q11 -37 30 -75.5t41 -72.5v-12h-56z" />
    <glyph glyph-name="uni0212" unicode="&#x212;" horiz-adv-x="573" 
d="M41 0l151 714h157q220 0 220 -181q0 -77 -40.5 -134t-137.5 -84l118 -315h-98l-102 295h-117l-62 -295h-89zM286 371q100 0 145.5 43.5t45.5 112.5q0 61 -34 85t-102 24h-76l-57 -265h78zM257 784q17 72 58.5 103t104.5 31q54 0 89 -28.5t35 -83.5v-10.5t-1 -11.5h-52
q0 29 -18 45t-62 16q-46 0 -68.5 -16.5t-30.5 -44.5h-55z" />
    <glyph glyph-name="uni0213" unicode="&#x213;" horiz-adv-x="398" 
d="M28 0l114 536h72l-11 -99h5q21 28 44 52.5t52 40.5t67 16q14 0 29.5 -1.5t28.5 -5.5l-19 -79q-27 6 -51 6q-50 0 -89 -33t-65 -84t-37 -104l-52 -245h-88zM163 606q17 72 58.5 103t104.5 31q54 0 89 -28.5t35 -83.5v-10.5t-1 -11.5h-52q0 29 -18 45t-62 16
q-46 0 -68.5 -16.5t-30.5 -44.5h-55z" />
    <glyph glyph-name="uni0214" unicode="&#x214;" horiz-adv-x="677" 
d="M300 -10q-112 0 -166.5 51.5t-54.5 146.5q0 17 3 42t9 53l92 431h89l-93 -436q-5 -23 -8 -48t-3 -41q0 -56 34.5 -88t102.5 -32q89 0 132.5 46t62.5 135l99 464h89l-100 -471q-16 -78 -50.5 -135t-92.5 -87.5t-145 -30.5zM492 784q-19 19 -40.5 46t-40 55t-29.5 49v10h96
q11 -37 30 -75.5t39 -72.5v-12h-55zM321 784q-19 19 -40.5 46t-40 55t-29.5 49v10h95q11 -37 30 -75.5t41 -72.5v-12h-56z" />
    <glyph glyph-name="uni0215" unicode="&#x215;" horiz-adv-x="579" 
d="M189 -10q-61 0 -97.5 34t-36.5 99q0 23 3.5 43.5t7.5 42.5l70 327h89l-72 -337q-9 -43 -9 -67q0 -32 16.5 -50.5t53.5 -18.5q34 0 73.5 24t73.5 77t53 141l49 231h87l-114 -536h-72l11 99h-5q-19 -24 -44.5 -49.5t-59 -42.5t-77.5 -17zM405 606q-19 19 -40.5 46t-40 55
t-29.5 49v10h96q11 -37 30 -75.5t39 -72.5v-12h-55zM234 606q-19 19 -40.5 46t-40 55t-29.5 49v10h95q11 -37 30 -75.5t41 -72.5v-12h-56z" />
    <glyph glyph-name="uni0216" unicode="&#x216;" horiz-adv-x="677" 
d="M300 -10q-112 0 -166.5 51.5t-54.5 146.5q0 17 3 42t9 53l92 431h89l-93 -436q-5 -23 -8 -48t-3 -41q0 -56 34.5 -88t102.5 -32q89 0 132.5 46t62.5 135l99 464h89l-100 -471q-16 -78 -50.5 -135t-92.5 -87.5t-145 -30.5zM309 784q17 72 58.5 103t104.5 31q54 0 89 -28.5
t35 -83.5v-10.5t-1 -11.5h-52q0 29 -18 45t-62 16q-46 0 -68.5 -16.5t-30.5 -44.5h-55z" />
    <glyph glyph-name="uni0217" unicode="&#x217;" horiz-adv-x="579" 
d="M189 -10q-61 0 -97.5 34t-36.5 99q0 23 3.5 43.5t7.5 42.5l70 327h89l-72 -337q-9 -43 -9 -67q0 -32 16.5 -50.5t53.5 -18.5q34 0 73.5 24t73.5 77t53 141l49 231h87l-114 -536h-72l11 99h-5q-19 -24 -44.5 -49.5t-59 -42.5t-77.5 -17zM222 606q17 72 58.5 103t104.5 31
q54 0 89 -28.5t35 -83.5v-10.5t-1 -11.5h-52q0 29 -18 45t-62 16q-46 0 -68.5 -16.5t-30.5 -44.5h-55z" />
    <glyph glyph-name="uni0218" unicode="&#x218;" horiz-adv-x="505" 
d="M185 -10q-52 0 -91.5 8t-74.5 24v88q30 -16 71.5 -29t95.5 -13q45 0 83 14t61 43t23 75q0 40 -26.5 68.5t-91.5 65.5q-38 23 -67.5 47.5t-46 57t-16.5 78.5q0 66 32 112.5t85.5 70.5t117.5 24q56 0 98.5 -11t80.5 -31l-34 -76q-26 14 -65 26.5t-80 12.5q-61 0 -100.5 -32
t-39.5 -90q0 -30 11 -50.5t34 -37t57 -37.5q43 -26 75.5 -51t51 -58t18.5 -82q0 -107 -71.5 -162t-190.5 -55zM89 -208q10 17 24 43t27 54.5t20 49.5h83v-10q-6 -16 -23 -43t-39 -56t-44 -51h-48v13z" />
    <glyph glyph-name="uni0219" unicode="&#x219;" horiz-adv-x="432" 
d="M155 -10q-49 0 -85.5 9.5t-64.5 24.5v81q26 -16 65.5 -29.5t81.5 -13.5q59 0 90 23.5t31 60.5q0 29 -19 48.5t-71 48.5q-57 32 -86 66t-29 85q0 68 49.5 110t132.5 42q49 0 90.5 -11.5t71.5 -25.5l-28 -70q-26 12 -58 22.5t-76 10.5q-43 0 -68.5 -20.5t-25.5 -52.5
q0 -26 17.5 -45.5t70.5 -48.5q34 -20 61 -40t42.5 -46t15.5 -64q0 -81 -56.5 -123t-151.5 -42zM52 -208q10 17 24 43t27 54.5t20 49.5h83v-10q-6 -16 -23 -43t-39 -56t-44 -51h-48v13z" />
    <glyph glyph-name="uni021A" unicode="&#x21a;" horiz-adv-x="501" 
d="M152 0l134 635h-196l17 79h482l-16 -79h-196l-135 -635h-90zM87 -208q10 17 24 43t27 54.5t20 49.5h83v-10q-6 -16 -23 -43t-39 -56t-44 -51h-48v13z" />
    <glyph glyph-name="uni021B" unicode="&#x21b;" horiz-adv-x="332" 
d="M185 -10q-54 0 -91 26t-37 91q0 32 9 71l61 291h-83l8 40l90 38l62 111h52l-27 -122h135l-14 -67h-134l-62 -292q-3 -13 -6 -29.5t-3 -30.5q0 -23 12.5 -39t40.5 -16q18 0 35 3.5t36 9.5v-67q-12 -6 -37 -12t-47 -6zM39 -208q10 17 24 43t27 54.5t20 49.5h83v-10
q-6 -16 -23 -43t-39 -56t-44 -51h-48v13z" />
    <glyph glyph-name="uni021C" unicode="&#x21c;" horiz-adv-x="575" 
d="M-34 -94q91 22 172.5 49.5t144.5 63.5t99 85t36 115q0 42 -23.5 69.5t-62.5 49.5q-38 -13 -78 -23.5t-81 -20.5l-3 72q62 16 117 33t98.5 38.5t68 52.5t24.5 76q0 40 -29 62t-83 22q-59 0 -110 -15.5t-103 -45.5l-31 64q66 40 130.5 55.5t130.5 15.5q52 0 95 -16t69 -48
t26 -81q0 -73 -42 -123.5t-114 -82.5q37 -20 65.5 -58t28.5 -94q0 -70 -30.5 -125.5t-84 -98t-125 -75t-154 -57.5t-169.5 -45z" />
    <glyph glyph-name="uni021D" unicode="&#x21d;" horiz-adv-x="496" 
d="M-51 -161q72 15 140 36t122 52t85.5 72.5t31.5 96.5q0 39 -16.5 62t-45.5 39q-31 -12 -67 -22t-74 -19v66q73 18 129.5 40t89.5 55t33 82q0 38 -23.5 57t-66.5 19q-44 0 -84.5 -10t-81.5 -30l-25 64q51 26 100.5 36.5t98.5 10.5q46 0 85.5 -15t63.5 -46.5t24 -79.5
q0 -56 -35 -100.5t-91 -74.5q34 -18 55 -48t21 -84q0 -78 -40.5 -134t-110 -95t-156.5 -65t-179 -44z" />
    <glyph glyph-name="uni021E" unicode="&#x21e;" horiz-adv-x="680" 
d="M42 0l151 714h89l-64 -302h314l64 302h88l-151 -714h-88l70 333h-314l-70 -333h-89zM401 784q-13 38 -38 78t-44 69v13h53q20 -16 40 -40t39 -51q31 27 62 50.5t58 40.5h57v-13q-17 -15 -45 -41.5t-54.5 -54.5t-41.5 -51h-86z" />
    <glyph glyph-name="uni021F" unicode="&#x21f;" horiz-adv-x="579" 
d="M28 0l161 760h88l-43 -197q-6 -30 -15 -62.5t-17 -64.5h5q19 25 45 50t59.5 42t76.5 17q62 0 98.5 -34.5t36.5 -102.5q0 -19 -3 -39t-8 -43l-70 -326h-88l71 336q9 45 9 66q0 33 -16.5 51.5t-53.5 18.5q-34 0 -73.5 -23.5t-73 -76.5t-52.5 -141l-49 -231h-88zM200 830
q-13 38 -38 78t-44 69v13h53q20 -16 40 -40t39 -51q31 27 62 50.5t58 40.5h57v-13q-17 -15 -45 -41.5t-54.5 -54.5t-41.5 -51h-86z" />
    <glyph glyph-name="uni0220" unicode="&#x220;" horiz-adv-x="700" 
d="M569 461q4 19 6 36.5t2 33.5q0 55 -27.5 85.5t-90.5 30.5q-64 0 -115 -37.5t-85.5 -99t-49.5 -133.5l-79 -377h-89l151 714h74l-16 -117h5q34 58 91.5 93t130.5 35q92 0 141 -46.5t49 -138.5q0 -35 -9 -79l-148 -701h-90z" />
    <glyph glyph-name="uni0221" unicode="&#x221;" horiz-adv-x="807" 
d="M419 -93q6 27 16 60.5t19 55.5q-50 32 -50 112h-3q-21 -41 -56 -74t-74.5 -52t-77.5 -19q-64 0 -104.5 46t-40.5 137q0 74 18 140.5t52.5 119t83 82.5t109.5 30q54 0 86.5 -27.5t48.5 -64.5h5q5 34 9.5 65t12.5 67l37 175h87l-117 -554q-4 -21 -7.5 -43.5t-3.5 -37.5
q0 -14 3.5 -24.5t7.5 -17.5q16 30 36.5 57t52 44t78.5 17q56 0 83.5 -28.5t27.5 -70.5q0 -61 -43.5 -86.5t-114.5 -25.5q-28 0 -50.5 3t-36.5 7q-7 -19 -16 -49.5t-14 -55.5zM223 63q33 0 67 24.5t63 66.5t46.5 96t17.5 114q0 48 -23.5 78t-76.5 30q-40 0 -72.5 -25.5
t-56.5 -68.5t-37 -97t-13 -110q0 -108 85 -108zM606 48q49 0 68.5 15.5t19.5 38.5q0 20 -13.5 32t-40.5 12q-38 0 -63.5 -25t-42.5 -65q26 -8 72 -8z" />
    <glyph glyph-name="uni0222" unicode="&#x222;" horiz-adv-x="639" 
d="M272 -10q-65 0 -116.5 24.5t-81.5 72t-30 114.5q0 64 25 112t68.5 79.5t96.5 46.5q-34 21 -54.5 53.5t-20.5 82.5q0 24 6 51l18 88h90l-18 -88q-6 -25 -6 -49q0 -52 30.5 -79.5t85.5 -27.5q75 0 119.5 44t58.5 112l18 88h89l-19 -94q-14 -70 -51 -118.5t-102 -70.5
q45 -23 76.5 -68t31.5 -108q0 -87 -39.5 -146t-110.5 -89t-164 -30zM279 68q97 0 154.5 51.5t57.5 137.5q0 62 -39 99t-105 37q-59 0 -106 -23.5t-74.5 -67t-27.5 -102.5q0 -58 35 -95t105 -37z" />
    <glyph glyph-name="uni0223" unicode="&#x223;" horiz-adv-x="578" 
d="M249 -10q-95 0 -152.5 53t-57.5 145q0 96 43 168t131 97q-29 19 -44 48.5t-15 73.5q0 25 6 56l27 129h89l-27 -126q-4 -18 -6 -33.5t-2 -29.5q0 -45 26 -65.5t73 -20.5q60 0 92.5 35t48.5 114l27 126h89l-27 -129q-17 -82 -50.5 -125.5t-86.5 -60.5q40 -20 64.5 -60
t24.5 -100q0 -57 -15.5 -109.5t-49 -94.5t-85 -66.5t-123.5 -24.5zM257 63q57 0 95 30.5t57.5 81t19.5 111.5q0 59 -31 92.5t-89 33.5t-97.5 -29t-59.5 -78t-20 -110q0 -60 32 -96t93 -36z" />
    <glyph glyph-name="uni0224" unicode="&#x224;" horiz-adv-x="531" 
d="M294 -198q-16 0 -31 3.5t-23 7.5v73q11 -4 22.5 -6.5t23.5 -2.5q23 0 36 13t20 44l14 66h-366l14 70l445 564h-315l17 80h422l-13 -71l-445 -563h335l-34 -164q-13 -66 -45.5 -90t-76.5 -24z" />
    <glyph glyph-name="uni0225" unicode="&#x225;" horiz-adv-x="445" 
d="M199 -198q-17 0 -34 4t-26 8v73q7 -3 18.5 -6t25.5 -3q48 0 60 54l14 68h-272l12 60l333 410h-230l14 66h325l-14 -71l-327 -399h255l-28 -142q-13 -63 -43 -92.5t-83 -29.5z" />
    <glyph glyph-name="uni0226" unicode="&#x226;" horiz-adv-x="562" 
d="M-57 0l388 714h94l88 -714h-88l-27 222h-241l-116 -222h-98zM200 302h189l-16 150q-4 38 -7.5 84t-4.5 81h-3q-16 -38 -37 -81.5t-44 -87.5zM398 803q-20 0 -34 12.5t-14 34.5q0 26 15.5 45t43.5 19q46 0 46 -45q0 -31 -18 -48.5t-39 -17.5z" />
    <glyph glyph-name="uni0227" unicode="&#x227;" horiz-adv-x="568" 
d="M193 -10q-64 0 -104.5 46.5t-40.5 136.5q0 75 19.5 142.5t54.5 119t83 81.5t106 30q53 0 86 -28t49 -65h5l32 83h67l-114 -536h-70l13 99h-4q-34 -44 -80 -76.5t-102 -32.5zM222 63q37 0 72.5 27t64.5 73t44 103q8 29 10.5 53.5t2.5 45.5q0 47 -26 77t-70 30
q-39 0 -72 -24.5t-58 -67t-38.5 -96.5t-13.5 -113q0 -54 22 -81t62 -27zM363 625q-20 0 -34 12.5t-14 34.5q0 26 15.5 45t43.5 19q46 0 46 -45q0 -31 -18 -48.5t-39 -17.5z" />
    <glyph glyph-name="uni0228" unicode="&#x228;" horiz-adv-x="514" 
d="M41 0l151 714h362l-17 -79h-273l-47 -223h255l-15 -78h-256l-55 -255h274l-17 -79h-362zM165 -240q-27 0 -45 5v52q10 -2 19.5 -3t16.5 -1q82 0 82 53q0 22 -18.5 32t-48.5 14l48 88h56l-29 -57q23 -7 43.5 -23.5t20.5 -53.5q0 -45 -37 -75.5t-108 -30.5z" />
    <glyph glyph-name="uni0229" unicode="&#x229;" horiz-adv-x="499" 
d="M242 -10q-93 0 -143.5 54.5t-50.5 147.5q0 64 18.5 126.5t53.5 114t84.5 82.5t111.5 31q76 0 114.5 -33t38.5 -92q0 -52 -32.5 -95t-101.5 -68.5t-179 -25.5h-17q-1 -9 -1.5 -19t-0.5 -18q0 -61 30 -96.5t91 -35.5q38 0 72 11t74 30v-75q-38 -17 -74.5 -28t-87.5 -11z
M159 303q60 0 111 10.5t82 35t31 65.5q0 26 -17.5 42.5t-54.5 16.5q-48 0 -92.5 -44.5t-66.5 -125.5h7zM154 -240q-27 0 -45 5v52q10 -2 19.5 -3t16.5 -1q82 0 82 53q0 22 -18.5 32t-48.5 14l48 88h56l-29 -57q23 -7 43.5 -23.5t20.5 -53.5q0 -45 -37 -75.5t-108 -30.5z" />
    <glyph glyph-name="uni022A" unicode="&#x22a;" horiz-adv-x="721" 
d="M367 943l15 71h269l-15 -71h-269zM386 779q-19 0 -31 11t-12 31q0 23 14 40t39 17q21 0 30.5 -11t9.5 -29q0 -28 -15.5 -43.5t-34.5 -15.5zM565 779q-18 0 -30 11t-12 31q0 23 14 40t39 17q20 0 30 -11t10 -29q0 -28 -16 -43.5t-35 -15.5zM337 -10q-128 0 -196.5 74.5
t-68.5 202.5q0 92 24.5 175t71.5 146.5t114 100t151 36.5q122 0 189.5 -75t67.5 -206q0 -93 -22.5 -175t-67 -144.5t-110.5 -98.5t-153 -36zM340 69q60 0 107 30t80 82.5t50.5 120.5t17.5 144q0 95 -45 147.5t-123 52.5q-60 0 -108 -29.5t-82 -81t-52 -120t-18 -146.5
q0 -94 46 -147t127 -53z" />
    <glyph glyph-name="uni022B" unicode="&#x22b;" horiz-adv-x="563" 
d="M233 765l15 71h269l-15 -71h-269zM252 601q-19 0 -31 11t-12 31q0 23 14 40t39 17q21 0 30.5 -11t9.5 -29q0 -28 -15.5 -43.5t-34.5 -15.5zM431 601q-18 0 -30 11t-12 31q0 23 14 40t39 17q20 0 30 -11t10 -29q0 -28 -16 -43.5t-35 -15.5zM248 -8q-93 0 -146.5 55.5
t-53.5 150.5q0 62 17 123t50.5 111t84 80.5t116.5 30.5q94 0 147 -55.5t53 -151.5q0 -61 -17 -122t-50.5 -111t-83.5 -80.5t-117 -30.5zM253 65q48 0 87 33.5t62.5 96.5t23.5 151q0 30 -10.5 58.5t-34.5 47t-64 18.5q-55 0 -95.5 -37.5t-62.5 -100t-22 -137.5
q0 -62 30.5 -96t85.5 -34z" />
    <glyph glyph-name="uni022C" unicode="&#x22c;" horiz-adv-x="721" 
d="M339 943l15 71h309l-15 -71h-309zM299 783q14 53 41 83.5t73 30.5q31 0 52 -12t39 -24t39 -12q37 0 62 49h51q-15 -52 -47.5 -83t-73.5 -31q-29 0 -49.5 12t-38.5 24t-40 12q-21 0 -33.5 -12t-23.5 -37h-51zM337 -10q-128 0 -196.5 74.5t-68.5 202.5q0 92 24.5 175
t71.5 146.5t114 100t151 36.5q122 0 189.5 -75t67.5 -206q0 -93 -22.5 -175t-67 -144.5t-110.5 -98.5t-153 -36zM340 69q60 0 107 30t80 82.5t50.5 120.5t17.5 144q0 95 -45 147.5t-123 52.5q-60 0 -108 -29.5t-82 -81t-52 -120t-18 -146.5q0 -94 46 -147t127 -53z" />
    <glyph glyph-name="uni022D" unicode="&#x22d;" horiz-adv-x="563" 
d="M205 765l15 71h309l-15 -71h-309zM165 605q14 53 41 83.5t73 30.5q31 0 52 -12t39 -24t39 -12q37 0 62 49h51q-15 -52 -47.5 -83t-73.5 -31q-29 0 -49.5 12t-38.5 24t-40 12q-21 0 -33.5 -12t-23.5 -37h-51zM248 -8q-93 0 -146.5 55.5t-53.5 150.5q0 62 17 123t50.5 111
t84 80.5t116.5 30.5q94 0 147 -55.5t53 -151.5q0 -61 -17 -122t-50.5 -111t-83.5 -80.5t-117 -30.5zM253 65q48 0 87 33.5t62.5 96.5t23.5 151q0 30 -10.5 58.5t-34.5 47t-64 18.5q-55 0 -95.5 -37.5t-62.5 -100t-22 -137.5q0 -62 30.5 -96t85.5 -34z" />
    <glyph glyph-name="uni022E" unicode="&#x22e;" horiz-adv-x="721" 
d="M337 -10q-128 0 -196.5 74.5t-68.5 202.5q0 92 24.5 175t71.5 146.5t114 100t151 36.5q122 0 189.5 -75t67.5 -206q0 -93 -22.5 -175t-67 -144.5t-110.5 -98.5t-153 -36zM340 69q60 0 107 30t80 82.5t50.5 120.5t17.5 144q0 95 -45 147.5t-123 52.5q-60 0 -108 -29.5
t-82 -81t-52 -120t-18 -146.5q0 -94 46 -147t127 -53zM478 803q-20 0 -34 12.5t-14 34.5q0 26 15.5 45t43.5 19q46 0 46 -45q0 -31 -18 -48.5t-39 -17.5z" />
    <glyph glyph-name="uni022F" unicode="&#x22f;" horiz-adv-x="563" 
d="M248 -8q-93 0 -146.5 55.5t-53.5 150.5q0 62 17 123t50.5 111t84 80.5t116.5 30.5q94 0 147 -55.5t53 -151.5q0 -61 -17 -122t-50.5 -111t-83.5 -80.5t-117 -30.5zM253 65q48 0 87 33.5t62.5 96.5t23.5 151q0 30 -10.5 58.5t-34.5 47t-64 18.5q-55 0 -95.5 -37.5
t-62.5 -100t-22 -137.5q0 -62 30.5 -96t85.5 -34zM344 625q-20 0 -34 12.5t-14 34.5q0 26 15.5 45t43.5 19q46 0 46 -45q0 -31 -18 -48.5t-39 -17.5z" />
    <glyph glyph-name="uni0230" unicode="&#x230;" horiz-adv-x="721" 
d="M365 943l15 71h269l-15 -71h-269zM473 784q-20 0 -34 12.5t-14 34.5q0 26 15.5 45t43.5 19q46 0 46 -45q0 -31 -18 -48.5t-39 -17.5zM337 -10q-128 0 -196.5 74.5t-68.5 202.5q0 92 24.5 175t71.5 146.5t114 100t151 36.5q122 0 189.5 -75t67.5 -206q0 -93 -22.5 -175
t-67 -144.5t-110.5 -98.5t-153 -36zM340 69q60 0 107 30t80 82.5t50.5 120.5t17.5 144q0 95 -45 147.5t-123 52.5q-60 0 -108 -29.5t-82 -81t-52 -120t-18 -146.5q0 -94 46 -147t127 -53z" />
    <glyph glyph-name="uni0231" unicode="&#x231;" horiz-adv-x="563" 
d="M230 765l15 71h269l-15 -71h-269zM338 606q-20 0 -34 12.5t-14 34.5q0 26 15.5 45t43.5 19q46 0 46 -45q0 -31 -18 -48.5t-39 -17.5zM248 -8q-93 0 -146.5 55.5t-53.5 150.5q0 62 17 123t50.5 111t84 80.5t116.5 30.5q94 0 147 -55.5t53 -151.5q0 -61 -17 -122
t-50.5 -111t-83.5 -80.5t-117 -30.5zM253 65q48 0 87 33.5t62.5 96.5t23.5 151q0 30 -10.5 58.5t-34.5 47t-64 18.5q-55 0 -95.5 -37.5t-62.5 -100t-22 -137.5q0 -62 30.5 -96t85.5 -34z" />
    <glyph glyph-name="uni0232" unicode="&#x232;" horiz-adv-x="509" 
d="M150 0l58 268l-116 446h89l85 -358l234 358h101l-306 -449l-55 -265h-90zM226 784l15 71h269l-15 -71h-269z" />
    <glyph glyph-name="uni0233" unicode="&#x233;" horiz-adv-x="467" 
d="M-25 -240q-24 0 -39.5 3t-29.5 7v71q14 -4 30 -6.5t34 -2.5q41 0 69.5 25t54.5 73l35 62l-81 544h88l35 -265q5 -32 7.5 -70.5t4 -73t1.5 -55.5h3q7 16 20.5 48t29.5 66t28 56l156 294h94l-340 -626q-40 -75 -84.5 -112.5t-115.5 -37.5zM148 606l15 71h269l-15 -71h-269z
" />
    <glyph glyph-name="uni0234" unicode="&#x234;" horiz-adv-x="341" 
d="M-49 -7q23 48 51.5 87.5t56.5 67.5q3 13 5.5 25t5.5 25l120 562h88l-115 -538q22 8 48 8q56 0 83 -33t27 -77q0 -61 -41 -95.5t-106 -34.5q-42 0 -71 17.5t-42 47.5q-14 -16 -27 -38t-24 -46zM184 58q24 0 41 15t17 43q0 22 -13.5 34t-31.5 12q-19 0 -34.5 -8.5
t-26.5 -22.5q0 -31 10 -52t38 -21z" />
    <glyph glyph-name="uni0235" unicode="&#x235;" horiz-adv-x="667" 
d="M277 -7q23 48 51.5 87.5t56.5 67.5q3 13 5.5 25t5.5 25l30 140q9 41 9 67q0 31 -17 49t-54 18q-34 0 -73 -23.5t-73 -76.5t-53 -141l-49 -231h-88l114 536h72l-11 -99h5q19 25 44.5 50t59 42t76.5 17q62 0 98.5 -33.5t36.5 -98.5q0 -32 -4 -54.5t-8 -38.5l-22 -99
q22 8 48 8q56 0 83 -33t27 -77q0 -61 -41 -95.5t-106 -34.5q-42 0 -71 17.5t-42 47.5q-14 -16 -27 -38t-24 -46zM510 58q24 0 41 15t17 43q0 22 -13.5 34t-31.5 12q-19 0 -34.5 -8.5t-26.5 -22.5q0 -31 10 -52t38 -21z" />
    <glyph glyph-name="uni0236" unicode="&#x236;" horiz-adv-x="347" 
d="M-48 -7q23 48 51.5 87.5t56.5 67.5q2 12 5 25l6 26l56 270h-83l8 40l90 38l62 111h52l-27 -122h135l-14 -67h-134l-53 -247q22 8 49 8q56 0 83 -33t27 -77q0 -61 -41 -95.5t-106 -34.5q-42 0 -71 17.5t-42 47.5q-14 -16 -27 -38t-24 -46zM185 58q24 0 41 15t17 43
q0 22 -13.5 34t-31.5 12q-19 0 -34.5 -8.5t-26.5 -22.5q0 -31 10 -52t38 -21z" />
    <glyph glyph-name="uni0237" unicode="&#x237;" horiz-adv-x="258" 
d="M-64 -240q-37 0 -62 10v74q12 -4 27 -7.5t31 -3.5q61 0 82 98l128 605h87l-130 -613q-16 -75 -52.5 -119t-110.5 -44z" />
    <glyph glyph-name="uni0238" unicode="&#x238;" horiz-adv-x="900" 
d="M203 -10q-72 0 -113.5 46t-41.5 137q0 74 18 140.5t52.5 119t83 82.5t109.5 30q54 0 86.5 -27.5t48.5 -64.5h5q5 34 10 65t12 67l37 175h88l-38 -180q-7 -34 -15.5 -66.5t-14.5 -54t-7 -23.5h4q36 44 78.5 76.5t98.5 32.5q66 0 106.5 -46t40.5 -136q0 -73 -18 -140
t-53 -119.5t-85 -83t-115 -30.5q-68 0 -109.5 32.5t-52.5 92.5q-20 -30 -46 -59t-66 -47.5t-103 -18.5zM223 63q48 0 84 24.5t60.5 66t37 94.5t12.5 111q0 48 -25 80.5t-75 32.5q-40 0 -72.5 -25.5t-56.5 -68.5t-37 -97t-13 -110q0 -108 85 -108zM583 63q40 0 73 25.5
t56.5 68.5t36 97t12.5 110q0 108 -85 108q-33 0 -67.5 -23.5t-63.5 -65t-46.5 -95t-17.5 -112.5q0 -52 27 -82.5t75 -30.5z" />
    <glyph glyph-name="uni0239" unicode="&#x239;" horiz-adv-x="900" 
d="M697 546q72 0 113.5 -45.5t41.5 -137.5q0 -73 -18 -140t-52.5 -119.5t-83 -82.5t-109.5 -30q-54 0 -86 27.5t-49 64.5h-5q-4 -34 -9 -65t-13 -67l-37 -175h-88l38 180q8 35 16 67.5t14 54t7 22.5h-4q-36 -44 -78.5 -76.5t-98.5 -32.5q-66 0 -106.5 46t-40.5 136
q0 73 18 140t53 119.5t85.5 83t114.5 30.5q68 0 109.5 -32.5t52.5 -92.5q21 30 47 59t66 47.5t102 18.5zM677 473q-48 0 -84 -24.5t-60.5 -66t-37 -94.5t-12.5 -111q0 -48 25.5 -80.5t74.5 -32.5q40 0 72.5 25.5t56.5 68.5t37 97t13 110q0 108 -85 108zM317 473
q-40 0 -73 -25.5t-56.5 -68.5t-36 -97t-12.5 -110q0 -108 85 -108q33 0 67.5 23.5t63.5 65t46.5 95t17.5 112.5q0 52 -27 82.5t-75 30.5z" />
    <glyph glyph-name="uni023A" unicode="&#x23a;" horiz-adv-x="562" 
d="M-57 0l388 714h94l7 -55l53 101h66l-107 -204l69 -556h-88l-27 222h-129l-155 -297h-67l156 297h-46l-116 -222h-98zM200 302h45l121 231q-2 22 -3.5 44t-1.5 40h-3q-16 -38 -37 -81.5t-44 -87.5zM389 302l-13 123l-65 -123h78z" />
    <glyph glyph-name="uni023B" unicode="&#x23b;" horiz-adv-x="587" 
d="M87 -75l66 125q-81 73 -81 213q0 64 15 130t45.5 125t77 105.5t108.5 73.5t140 27q25 0 47 -2l20 38h66l-26 -49q35 -10 67 -27l-36 -74q-15 8 -32.5 15t-36.5 12l-284 -541q41 -27 99 -27q41 0 80.5 8t77.5 21v-78q-39 -14 -78.5 -22t-95.5 -8q-70 0 -124 27l-48 -92
h-67zM167 265q0 -76 33 -125l265 505h-7q-75 0 -129.5 -33.5t-90.5 -89t-53.5 -122.5t-17.5 -135z" />
    <glyph glyph-name="uni023C" unicode="&#x23c;" horiz-adv-x="453" 
d="M7 -145l97 184q-27 25 -41.5 62.5t-14.5 88.5q0 72 19.5 136.5t56 113.5t88 77.5t116.5 28.5q20 0 40 -2l77 146h66l-83 -158q17 -5 33 -12l-25 -73q-9 4 -20 8.5t-24 7.5l-201 -384q27 -16 65 -16q35 0 66.5 10t62.5 23v-74q-28 -14 -62.5 -23t-75.5 -9q-53 0 -93 17
l-80 -152h-67zM138 191q0 -37 12 -64l181 345h-2q-57 0 -100 -38.5t-67 -102.5t-24 -140z" />
    <glyph glyph-name="uni023D" unicode="&#x23d;" horiz-adv-x="478" 
d="M41 0l70 332h-80l15 71h80l66 311h89l-67 -311h157l-15 -71h-157l-53 -252h274l-17 -80h-362z" />
    <glyph glyph-name="uni023E" unicode="&#x23e;" horiz-adv-x="501" 
d="M-51 -33l282 407l55 261h-196l17 79h359l61 88h72l-61 -88h51l-16 -79h-89l-154 -223l-88 -412h-90l47 223l-177 -256h-73zM377 635l-15 -72l49 72h-34z" />
    <glyph glyph-name="uni023F" unicode="&#x23f;" horiz-adv-x="432" 
d="M235 -240q-70 0 -102.5 37.5t-37.5 119.5q-2 36 -13.5 53.5t-35.5 32.5q-10 7 -20 10.5t-21 10.5v81q26 -16 65.5 -29.5t81.5 -13.5q59 0 90 23.5t31 60.5q0 29 -19 48.5t-71 48.5q-57 32 -86 66t-29 85q0 68 49.5 110t132.5 42q49 0 90.5 -11.5t71.5 -25.5l-28 -70
q-26 12 -58 22.5t-76 10.5q-43 0 -68.5 -20.5t-25.5 -52.5q0 -26 18 -45t70 -49q52 -29 85.5 -61.5t33.5 -88.5q0 -79 -55.5 -122t-157.5 -43q12 -12 16.5 -32t6.5 -41q5 -45 21.5 -64.5t48.5 -19.5q17 0 33.5 4t29.5 9v-72q-11 -5 -30 -9.5t-41 -4.5z" />
    <glyph glyph-name="uni0240" unicode="&#x240;" horiz-adv-x="432" 
d="M251 -240q-75 0 -105.5 39.5t-37.5 117.5q-4 44 -22.5 63.5t-63.5 19.5h-37l12 60l333 410h-230l14 66h325l-14 -71l-329 -401q46 -14 67 -48t28 -99q5 -44 21 -64t51 -20q18 0 33 4.5t29 9.5v-73q-12 -5 -31.5 -9.5t-42.5 -4.5z" />
    <glyph glyph-name="Glottalstopcased" unicode="&#x241;" horiz-adv-x="448" 
d="M135 322q40 14 81.5 31.5t77 42t57.5 59t22 80.5q0 49 -29 79.5t-79 30.5q-36 0 -76 -13.5t-75 -35.5l-33 72q41 26 90 41t104 15q92 0 142.5 -51.5t50.5 -134.5q0 -71 -34.5 -122t-92 -86t-127.5 -59l-57 -271h-90z" />
    <glyph glyph-name="glottalstopcased" unicode="&#x242;" horiz-adv-x="436" 
d="M93 144q40 14 79.5 32t72 43t52 59t19.5 79q0 49 -29.5 81t-76.5 32q-40 0 -72 -9.5t-67 -34.5l-35 69q41 28 84 39.5t98 11.5q87 0 137.5 -50.5t50.5 -133.5q0 -103 -64 -168.5t-173 -100.5l-19 -93h-87z" />
    <glyph glyph-name="uni0243" unicode="&#x243;" horiz-adv-x="600" 
d="M41 0l36 171h-75l16 78h75l99 465h185q99 0 155.5 -39t56.5 -125q0 -73 -44 -118.5t-117 -59.5v-5q49 -13 82 -49t33 -96q0 -73 -35.5 -122.5t-97 -74.5t-141.5 -25h-228zM334 410q45 0 81.5 14t58.5 42.5t22 72.5q0 47 -30 72.5t-100 25.5h-101l-48 -227h117zM272 76
q85 0 131 38t46 108q0 48 -31 81t-105 33h-112l-19 -87h137l-16 -78h-137l-20 -95h126z" />
    <glyph glyph-name="uni0244" unicode="&#x244;" horiz-adv-x="677" 
d="M300 -10q-112 0 -166.5 51.5t-54.5 146.5q0 17 3 42t9 53l15 71h-73l16 78h73l61 282h89l-61 -282h327l61 282h89l-60 -282h76l-16 -78h-77l-23 -111q-16 -78 -50.5 -135t-92.5 -87.5t-145 -30.5zM305 69q89 0 132.5 46t62.5 135l22 104h-327l-16 -76q-5 -23 -8 -48
t-3 -41q0 -56 34.5 -88t102.5 -32z" />
    <glyph glyph-name="uni0245" unicode="&#x245;" horiz-adv-x="562" 
d="M-57 0l388 713h95l89 -713h-88l-53 452q-4 41 -7 85.5t-5 81.5h-2q-16 -38 -35.5 -81t-45.5 -91l-238 -447h-98z" />
    <glyph glyph-name="uni0246" unicode="&#x246;" horiz-adv-x="514" 
d="M41 0l151 714h243l20 46h70l-20 -46h49l-17 -79h-66l-96 -223h97l-15 -78h-116l-110 -255h189l-17 -79h-207l-32 -75h-71l33 75h-85zM217 412h87l97 223h-137zM146 79h14l110 255h-69z" />
    <glyph glyph-name="uni0247" unicode="&#x247;" horiz-adv-x="499" 
d="M91 53q-43 54 -43 139q0 64 18.5 126.5t53.5 114t84.5 82.5t111.5 31q9 0 18 -0.5t17 -1.5l115 216h72l-125 -235q56 -33 56 -104q0 -65 -49 -114.5t-158 -66.5l-82 -154q29 -23 78 -23q38 0 72 11t74 30v-75q-38 -17 -74.5 -28t-87.5 -11q-30 0 -55 6t-46 16l-117 -220
h-72zM159 303q35 0 66 3l89 167q-55 0 -98.5 -47.5t-63.5 -122.5h7zM306 324q35 13 56 35t21 55q0 21 -11 35zM141 149l45 83h-47q-1 -9 -1.5 -19t-0.5 -18q0 -13 1 -24t3 -22z" />
    <glyph glyph-name="uni0248" unicode="&#x248;" horiz-adv-x="273" 
d="M-80 -190q-50 0 -76 12l3 77q15 -4 33 -7t38 -3q44 0 78 28t47 92l65 305h-76l17 78h76l68 322h89l-68 -322h75l-17 -78h-75l-66 -315q-22 -101 -76.5 -145t-134.5 -44z" />
    <glyph glyph-name="uni0249" unicode="&#x249;" horiz-adv-x="258" 
d="M212 625q-20 0 -33.5 12.5t-13.5 34.5q0 26 15.5 45t43.5 19q45 0 45 -45q0 -31 -18 -48.5t-39 -17.5zM-64 -240q-37 0 -62 10v74q12 -4 27 -7.5t31 -3.5q61 0 82 98l67 317h-69l15 71h69l46 217h87l-46 -217h69l-15 -71h-69l-69 -325q-16 -75 -52.5 -119t-110.5 -44z
" />
    <glyph glyph-name="uni024A" unicode="&#x24a;" horiz-adv-x="727" 
d="M583 -240q-49 0 -83.5 26t-34.5 85q0 21 6 46l22 103q4 18 9 36.5t9 35.5h-4q-31 -41 -79.5 -71.5t-118.5 -30.5q-117 0 -177 77t-60 204q0 89 24 170.5t70.5 145.5t113 101t150.5 37q68 0 114 -32t73 -79h4l36 100h73l-168 -793q-2 -11 -3.5 -20.5t-1.5 -17.5
q0 -24 13.5 -34t32.5 -10q12 0 22.5 3t20.5 7v-76q-10 -6 -29 -9.5t-34 -3.5zM324 68q62 0 107.5 28.5t75.5 77t43 108.5l26 120q6 27 9 52.5t3 38.5q0 72 -44.5 112.5t-118.5 40.5q-61 0 -109 -32t-81.5 -85.5t-50.5 -120t-17 -135.5q0 -97 42 -151t115 -54z" />
    </font>
</defs>
</svg>
